TV / Kryminalny
Belfer S01E08 [1080p.HDTV.H.264.AC3] [PL]


Dodał: Lukarusi
Data dodania:
2016-11-13 23:22:34
Rozmiar: 3.93 GB
Ostat. aktualizacja:
2016-11-20 11:21:48
Seedów: 481
Peerów: 84


Komentarze: 0

Info:

produkcja: Polska
gatunek: Kryminał
reżyseria: Łukasz Palkowski
scenariusz: Monika Powalisz, Jakub Żulczyk
zdjęcia: Marian Prokop
muzyka: Atanas Volkov
czas trwania: ok. 55 min.

Opis:

Śmierć młodej dziewczyny wstrząsa lokalną społecznością. W tym samym czasie w Dobrowicach zjawia się Paweł Zawadzki. Kim jest? Dlaczego nauczyciel z renomowanej warszawskiej szkoły podejmuje pracę na prowincji? Paweł rozpoczyna własne śledztwo. W obliczu zbrodni nie ma miejsca na półprawdy. Jednak, chociaż wszyscy się tu znają i wiedzą o sobie wszystko, Pawłowi nikt nic nie powie. Belfer zostaje sam.

Obsada:

Maciej Stuhr – Paweł Zawadzki, nauczyciel
Magdalena Cielecka – Katarzyna Molenda
Aleksandra Popławska – matka Asi
Robert Gonera – ojciec Asi
Piotr Głowacki – aspirant Papiński
Krzysztof Pieczyński – fotoreporter "Głosu Dobrowic"
Paweł Królikowski – komendant policji
Łukasz Simlat – Daniel, nauczyciel WF
Katarzyna Dąbrowska – Marta Mirska, nauczycielka
Józef Pawłowski – Maciek Dąbrowa, chłopak Asi
Sebastian Fabijański – Adrian Kuś
Patryk Pniewski – Łukasz Tarczyński, uczeń
Grzegorz Damięcki – Grzegorz Molenda
Paulina Szostak – Ewelina, przyjaciółka Asi
Aleksandra Grabowska – Julka Molenda, uczennica
Mateusz Więcławek – Jasiek Molenda, uczeń
Malwina Buss – Jowita, uczennica

Dane techniczne:

Format : Matroska
Format version : Version 4 / Version 2
File size : 3.93 GiB
Duration : 54mn 41s
Overall bit rate : 10.3 Mbps
Encoded date : UTC 2016-11-13 22:10:47

Video
ID : 1
Format : AVC
Format/Info : Advanced Video Codec
Format profile : Baseline@L4.0
Format settings, CABAC : No
Format settings, ReFrames : 1 frame
Format settings, GOP : M=1, N=50
Codec ID : V_MPEG4/ISO/AVC
Duration : 54mn 41s
Bit rate : 9 708 Kbps
Width : 1 920 pixels
Height : 1 080 pixels
Display aspect ratio : 16:9
Frame rate mode : Constant
Frame rate : 25.000 fps
Color space : YUV
Chroma subsampling : 4:2:0
Bit depth : 8 bits
Scan type : Progressive
Bits/(Pixel*Frame) : 0.187
Stream size : 3.71 GiB (94%)

Audio
ID : 2
Format : AC-3
Format/Info : Audio Coding 3
Mode extension : CM (complete main)
Format settings, Endianness : Big
Codec ID : A_AC3
Duration : 54mn 41s
Bit rate mode : Constant
Bit rate : 384 Kbps
Channel(s) : 2 channels
Channel positions : Front: L R
Sampling rate : 48.0 KHz
Bit depth : 16 bits
Compression mode : Lossy
Stream size : 150 MiB (4%)
Language : Polish

Lista plików Show/Hide [Pokaż/Ukryj]
Trackery
  • http://tracker.filetracker.pl:8089/announce
  • http://agusiq-torrents.pl:6969/announce
  • http://tracker.torrentyorg.pl/announce
  • udp://9.rarbg.com:2710/announce
  • udp://9.rarbg.me:2710/announce
  • udp://shadowshq.eddie4.nl:6969/announce
  • udp://tracker.leechers-paradise.org:6969/announce
  • udp://eddie4.nl:6969/announce
  • http://tracker.tfile.me/announce
  • http://mgtracker.org:2710/announce
  • http://94.228.192.98/announce
  • udp://tracker.openbittorrent.com:80/announce
  • http://tracker.trackerfix.com/announce
  • http://tracker.immortaltorrent.pl/announce
  • udp://10.rarbg.com/announce
  • udp://sugoi.pomf.se:80/announce
  • udp://tracker.pomf.se:80/announce
  • udp://tracker.glotorrents.com:6969/announce
  • http://retracker.omsk.ru:2710/announce
  • udp://torrent.gresille.org:80/announce
  • udp://poloniumsurfer.tk:6969/announce
  • http://tracker.aletorrenty.pl:2710/announce

Brak komentarzy!

Żaden z plików nie znajduje się na serwerze. Torrenty są własnością użytkowników. Administrator serwisu nie może ponieść konsekwencji za to co użytkownicy wstawiają, lub za to co czynią na stronie. Nie możesz używać tego serwisu do rozpowszechniania lub ściągania materiałów do których nie masz odpowiednich praw lub licencji. Użytkownicy odpowiedzialni są za przestrzeganie tych zasad.
Copyright © 2016 torrentyorg.pl

Najlepsze strony Torrentowe