3D / Animowany
Sawa. Mały wielki bohater-Savva. Heart of the Warrior 3D (2015)-alE13[BRRip 1080p x264 by alE13 AC3][Dubbing PL/Eng][Rus]


Dodał: alE13
Data dodania:
2016-11-18 18:40:23
Rozmiar: 8.00 GB
Ostat. aktualizacja:
2016-11-28 14:30:21
Seedów: 39
Peerów: 51


Komentarze: 0

Film w wersji 3D Half Over/Under

http://www.filmweb.pl/film/Sawa.+Ma%C5%82y+wielki+bohater-2015-732166
http://www.imdb.com/title/tt4075322/

reżyseria: Maksim Fadeev
scenariusz: Maksim Fadeev,Aleksandr Chistyakov,Gregory Poirier
gatunek: Animacja,Fantasy,Przygodowy
produkcja: Rosja
premiera: 12-11-2015
muzyka:     Maksim Fadeev
czas:      1h 27mn

opis:

A fairytale about a grand life journey of a 10-year old boy Savva devoted to help his Mom and
fellow village people to break free from the vicious hyenas.

Dziesięcioletni chłopiec z grupą nowo poznanych przyjaciół wyrusza w podróż przez magiczną krainę,
by uratować swoją wioskę.

http://i.imgur.com/lx09bzp.jpg
http://i.imgur.com/LVGLZAT.jpg
http://i.imgur.com/PdJIScL.jpg
http://i.imgur.com/IW8lbcJ.jpg

obsada:

Dubbing Eng:

Milla Jovovich, Sharon Stone, Whoopi Golldberg, Joe Pesci

dane techniczne:

Savva-Heart of the Warrior 3D (2015)-alE13.mkv
Format           : Matroska
Format version       : Version 4 / Version 2
File size          : 7.93 GiB
Duration          : 1 h 27 min
Overall bit rate      : 13.0 Mb/s
Movie name         : Savva-Heart of the Warrior 3D (2015)-alE13
Encoded date        : UTC 2016-11-18 14:09:34
Writing application     : mkvmerge v8.1.0 ('Psychedelic Postcard') 64bit
Writing library       : libebml v1.3.1 + libmatroska v1.4.2
Cover            : Yes
Attachments         : cover.jpg

Video
ID             : 1
Format           : AVC
Format/Info         : Advanced Video Codec
Format profile       : High@L4.1
Format settings, CABAC   : Yes
Format settings, ReFrames  : 2 frames
Codec ID          : V_MPEG4/ISO/AVC
Duration          : 1 h 27 min
Bit rate          : 12.1 Mb/s
Width            : 1 920 pixels
Height           : 1 080 pixels
Display aspect ratio    : 16:9
Frame rate mode       : Constant
Frame rate         : 23.976 (23976/1000) FPS
Original frame rate     : 23.976 (24000/1001) FPS
Color space         : YUV
Chroma subsampling     : 4:2:0
Bit depth          : 8 bits
Scan type          : Progressive
Bits/(Pixel*Frame)     : 0.243
Stream size         : 7.38 GiB (93%)
Title            : Savva-Heart of the Warrior 3D (2015)-alE13
Writing library       : x264 core 142
Default           : Yes
Forced           : No
Color range         : Limited
Color primaries       : BT.709
Transfer characteristics  : BT.709
Matrix coefficients     : BT.709

Audio #1
ID             : 2
Format           : AC-3
Format/Info         : Audio Coding 3
Mode extension       : CM (complete main)
Format settings, Endianness : Big
Codec ID          : A_AC3
Duration          : 1 h 27 min
Bit rate mode        : Constant
Bit rate          : 640 kb/s
Channel(s)         : 6 channels
Channel positions      : Front: L C R, Side: L R, LFE
Sampling rate        : 48.0 kHz
Frame rate         : 31.250 FPS (1536 spf)
Bit depth          : 16 bits
Compression mode      : Lossy
Stream size         : 400 MiB (5%)
Title            : Savva-Heart of the Warrior 3D (2015)-alE13_AC3
Language          : English
Default           : No
Forced           : No

Audio #2
ID             : 3
Format           : AC-3
Format/Info         : Audio Coding 3
Mode extension       : CM (complete main)
Format settings, Endianness : Big
Codec ID          : A_AC3
Duration          : 1 h 27 min
Bit rate mode        : Constant
Bit rate          : 256 kb/s
Channel(s)         : 2 channels
Channel positions      : Front: L R
Sampling rate        : 48.0 kHz
Frame rate         : 31.250 FPS (1536 spf)
Bit depth          : 16 bits
Compression mode      : Lossy
Delay relative to video   : 5 s 0 ms
Stream size         : 160 MiB (2%)
Title            : Savva-Heart of the Warrior 3D (2015)-alE13_AC3
Default           : Yes
Forced           : No

Menu
00:00:00.000        : en:00:00:00.000
00:04:59.466        : en:00:04:59.466
00:13:39.846        : en:00:13:39.819
00:22:17.055        : en:00:22:17.002
00:30:21.483        : en:00:30:21.403
00:39:54.248        : en:00:39:54.100
00:48:55.556        : en:00:48:55.391
00:53:38.119        : en:00:53:37.923
00:57:35.481        : en:00:57:35.285
01:04:36.335        : en:01:04:36.122
01:07:58.298        : en:01:07:58.032
01:14:54.953        : en:01:14:54.657

Lista plików Show/Hide [Pokaż/Ukryj]
Trackery
  • http://tracker.torrentyorg.pl/announce
  • udp://tracker.ilibr.org:80/announce
  • udp://tracker.ilibr.org:6969/announce
  • udp://tracker.coppersurfer.tk:6969/announce
  • udp://eddie4.nl:6969/announce
  • udp://tracker.leechers-paradise.org:6969/announce
  • udp://p4p.arenabg.com:1337/announce
  • udp://p4p.arenabg.ch:1337/announce
  • udp://zer0day.to:1337/announce
  • udp://tracker.opentrackr.org:1337/announce
  • http://pow7.com/announce
  • udp://tracker.piratepublic.com:1337/announce
  • http://mgtracker.org:2710/announce
  • http://pow7.com:80/announce
  • udp://inferno.demonoid.pw:3393/announce
  • udp://explodie.org:6969/announce
  • udp://tracker.internetwarriors.net:1337/announce
  • udp://tracker.openbittorrent.com:80/announce
  • udp://inferno.demonoid.ooo:3392/announce

Brak komentarzy!

belferAwołyńprzełęcz ocalonychwikingowieWołyń 2016walking deadwindows 7Need For Speedstar warsACall of Duty2016m jak miłośćWestworldlegion samobójcówwindows 10Aainfernovikingsdziewczyna z pociągu3%automapapitbullpaktwindowssullythe walking deadBattlefield 1
Żaden z plików nie znajduje się na serwerze. Torrenty są własnością użytkowników. Administrator serwisu nie może ponieść konsekwencji za to co użytkownicy wstawiają, lub za to co czynią na stronie. Nie możesz używać tego serwisu do rozpowszechniania lub ściągania materiałów do których nie masz odpowiednich praw lub licencji. Użytkownicy odpowiedzialni są za przestrzeganie tych zasad.
Copyright © 2016 torrentyorg.pl

Najlepsze strony Torrentowe