RMVB / Psychologiczny
ZERO_JEDEN_ZERO


Dodał: byk
Data dodania:
2016-11-22 21:33:47
Rozmiar: 275.92 MB
Ostat. aktualizacja:
2017-01-06 19:17:11
Seedów: 1
Peerów: 0


Komentarze: 0

0_1_0
• Tytuł alternatywny: ZERO_JEDEN_ZERO
• Film fabularny
• Produkcja: Polska
• Rok produkcji: 2008
• Premiera: 2008. 11. 14
• Gatunek: Film psychologiczny, Dramat, Ekranizacja utworu literackiego
• Dane techniczne: Barwny. 86 min.
Okres zdjęciowy: 7 - 17 sierpnia 2007. Plenery: Trójmiasto.

Opis.

Nadmorskie miasto. Poranna audycja w lokalnym radiu. Spiker rozpoczyna radiowy dzień od słów: "Witam was serdecznie. Jak się czujecie tego pięknego dnia? Nie jest piękny? O, nie. Każdy dzień jest piękny. Mówią, co prawda, że nadciąga huragan i zmiecie nas z powierzchni ziemi, ale ja w to nie wierzę. Wyjrzyjcie przez okno, to poczujecie, że nic nie może się stać". Zapowiada się całkiem zwykły dzień. Dzień, w czasie którego widzowie mają okazję podpatrzeć życie siedmiu par. Może się zdawać, że kamera wychwytuje urywki życia przypadkowych postaci. To złudzenie. Osoby te, choć się nie znają, były kiedyś świadkami pewnego wypadku, który odcisnął na nich piętno. Na każdym inne, ale jednak... Pierwsza para: Maciek i Lena. On miał wypadek samochodowy. Podróżował wtedy z kochanką. Teraz jest przykuty do wózka inwalidzkiego. Podejrzewa swoją żonę o zdradę. Jego obsesja, napastliwość, agresja rujnują ich życie. Para druga: Kasia znalazła mężczyznę, z którym chciałaby spędzić życie. Gdy chłopak wyznaje jej, że jeszcze niedawno był kobietą, ona nie może sobie tego wytłumaczyć. Pary trzecia, czwarta, piąta, szósta i siódma też mają swoje dramaty, tajemnice.

Obsada aktorska:

Wojciech Brzeziński (Maciek, mąż Leny), Anna Maria Buczek (Anna, siostra Piotra), Małgorzata Buczkowska (Lena, żona Maćka), Marta Chodorowska (Marta, żona Jacka), Marcin Kęszycki (strażnik), Julia Kijowska (Julia, żona Filipa), Redbad Klijnstra (Łuka), Piotr Ligienza (Tomek), Rafał Maćkowiak (Filip, mąż Julii), Rafał Mohr (Jacek, mąż Marty), Maria Peszek (Ilona), Magdalena Popławska (Maria), Maria Seweryn (Kasia), Dariusz Toczek (Piotr, brat Anny), Tomasz Tyndyk (Sebastian), Jacek Bunsch (barman), Lena Jaworska (Magda), Wiesław Komasa (spiker), Piotr Michalski (diler), Malina Prześluga (Weronika), Dariusz Siastacz (złomiarz), Grzegorz Wolf (złomiarz)

Dane techniczne.

Format           : RealMedia
File size          : 276 MiB
Duration          : 1 h 22 min
Overall bit rate      : 455 kb/s
Performer          : byk
Copyright          : byk

Video
ID             : 1
Format           : RealVideo 4
Codec ID          : RV40
Codec ID/Info        : Based on AVC (H.264), Real Player 9
Duration          : 1 h 22 min
Bit rate          : 391 kb/s
Width            : 640 pixels
Height           : 272 pixels
Display aspect ratio    : 2.35:1
Frame rate         : 25.000 FPS
Bits/(Pixel*Frame)     : 0.090
Stream size         : 230 MiB (83%)

Audio
ID             : 0
Format           : Cooker
Codec ID          : cook
Codec ID/Info        : Based on G.722.1, Real Player 6
Duration          : 1 h 22 min
Bit rate          : 64.1 kb/s
Channel(s)         : 2 channels
Sampling rate        : 44.1 kHz
Bit depth          : 16 bits
Stream size         : 37.8 MiB (14%)

Lista plików Show/Hide [Pokaż/Ukryj]
Trackery
  • http://tracker.torrentyorg.pl/announce

Brak komentarzy!

automapaAstar warsthe walking deadvikingspaktwołyńbelferinfernoWołyń 2016A2016sullyNeed For Speeddziewczyna z pociągupitbullwikingowieBattlefield 1windows 10awindowsprzełęcz ocalonychlegion samobójcówWestworld3%windows 7Am jak miłośćCall of Dutywalking dead
Żaden z plików nie znajduje się na serwerze. Torrenty są własnością użytkowników. Administrator serwisu nie może ponieść konsekwencji za to co użytkownicy wstawiają, lub za to co czynią na stronie. Nie możesz używać tego serwisu do rozpowszechniania lub ściągania materiałów do których nie masz odpowiednich praw lub licencji. Użytkownicy odpowiedzialni są za przestrzeganie tych zasad.
Copyright © 2016 torrentyorg.pl

Najlepsze strony Torrentowe