3D / Animowany
Kubo i dwie struny 3D - Kubo and the Two Strings *2016* [mini-HD.1080p.3D.Half.Over-Under.Dual.Audio.AC3.BluRay.x264-SONDA] [Dubbing i Napisy PL] [ENG]


Dodał: sonda
Data dodania:
2016-11-23 18:22:36
Rozmiar: 3.99 GB
Ostat. aktualizacja:
2016-12-28 20:57:09
Seedów: 64
Peerów: 17


Komentarze: 0

http://i.imgur.com/DCAzqXX.jpg

Film w wersji 3D Half Over-Under.
Do odtworzenia filmu WYMAGANY odpowiedni sprzęt (TV 3D)
=========================================

Kopia mini-HD 1080p = 3,98 GB

gatunek: Animacja,Familijny,Fantasy
produkcja: USA
premiera: 2 grudnia 2016 (Polska) 13 sierpnia 2016 (świat)
reżyseria: Travis Knight
scenariusz: Marc Haimes,Chris Butler

http://www.imdb.com/title/tt4302938/

Obsada:

Bernard Lewandowski ... Kubo (polski dubbing)
Lidia Sadowa ... Matka / Małpa (polski dubbing)
Tomasz Borkowski ... Żuk (polski dubbing)
Wojciech Paszkowski ... Księżycowy Król (polski dubbing)
Agnieszka Kunikowska ... Siostry (polski dubbing)
Barbara Zielińska ... Kameyo (polski dubbing)

Opis:

Kubo jest dobrym, pokornym chłopcem, który u boku matki mieszka w skromnej wiosce na końcu świata. Każdy dzień toczy się tym samym spokojnym rytmem - do czasu, kiedy chłopca odwiedza duch przeszłości, który zmienia jego przeznaczenie. Aby przetrwać, Kubo musi odnaleźć magiczną zbroję należącą do jego ojca - największego samuraja, jakiego kiedykolwiek nosiła Ziemia. W poszukiwaniach towarzyszą mu dobre duchy i pradawne bóstwa, które wspierają go magicznymi mocami. Tak Kubo wyrusza w fascynującą, pełną niebezpieczeństw podróż śladami swej rodziny. Podróż ta pozwoli mu poczuć dumę z tego, kim jest i uwierzyć, że możliwe jest wszystko.

Storyline:

Kubo lives a quiet, normal life in a small shoreside village until a spirit from the past turns his life upside down by re-igniting an age-old vendetta. This causes all sorts of havoc as gods and monsters chase Kubo who, in order to survive, must locate a magical suit of armor once worn by his late father, a legendary Samurai warrior.

Screenshot:

http://i.imgur.com/SadBt54.jpg
http://i.imgur.com/1NFNt6R.jpg
http://i.imgur.com/CzSOyAb.jpg
http://i.imgur.com/5EuIwdN.jpg


Dane techniczne:

General
Format                  : Matroska
Format version              : Version 2
File size                : 3.99 GiB
Duration                 : 1h 41mn
Overall bit rate             : 5 619 Kbps
Movie name                : Kubo.and.the.Two.Strings.3D.2016.PL.HOU.BDRip.miniHD.1080p.Sonda
Encoded date               : UTC 2016-11-23 15:40:29
Writing application           : mkvmerge v5.7.0 ('The Whirlwind') built on Jul 8 2012 20:08:51
Writing library             : libebml v1.2.3 + libmatroska v1.3.0

Video
ID                    : 1
Format                  : AVC
Format/Info               : Advanced Video Codec
Format profile              : High@L4.1
Format settings, CABAC          : Yes
Format settings, ReFrames        : 4 frames
Codec ID                 : V_MPEG4/ISO/AVC
Duration                 : 1h 41mn
Bit rate                 : 4 500 Kbps
Width                  : 1 920 pixels
Height                  : 1 080 pixels
Display aspect ratio           : 16:9 (2.39:1)
Frame rate mode             : Constant
Frame rate                : 23.976 fps
Color space               : YUV
Chroma subsampling            : 4:2:0
Bit depth                : 8 bits
Scan type                : Progressive
Bits/(Pixel*Frame)            : 0.091
Stream size               : 3.14 GiB (79%)
Title                  : Rip by Sonda
Writing library             : x264
Encoding settings            : cabac=1 / ref=4 / deblock=1:-1:-1 / rc=2pass
Default                 : Yes
Forced                  : No

Audio #1
ID                    : 2
Format                  : AC-3
Format/Info               : Audio Coding 3
Mode extension              : CM (complete main)
Format settings, Endianness       : Big
Codec ID                 : A_AC3
Duration                 : 1h 41mn
Bit rate mode              : Constant
Bit rate                 : 640 Kbps
Channel count              : 6 channels
Channel positions            : Front: L C R, Side: L R, LFE
Sampling rate              : 48.0 KHz
Bit depth                : 16 bits
Compression mode             : Lossy
Stream size               : 465 MiB (11%)
Title                  : AC3 5.1 Dubbing PL
Language                 : Polish
Default                 : Yes
Forced                  : Yes

Audio #2
ID                    : 3
Format                  : AC-3
Format/Info               : Audio Coding 3
Mode extension              : CM (complete main)
Format settings, Endianness       : Big
Codec ID                 : A_AC3
Duration                 : 1h 41mn
Bit rate mode              : Constant
Bit rate                 : 448 Kbps
Channel count              : 6 channels
Channel positions            : Front: L C R, Side: L R, LFE
Sampling rate              : 48.0 KHz
Bit depth                : 16 bits
Compression mode             : Lossy
Stream size               : 326 MiB (8%)
Title                  : AC3 5.1 ENG
Language                 : English
Default                 : No
Forced                  : No

Text #1
ID                    : 4
Format                  : UTF-8
Codec ID                 : S_TEXT/UTF8
Codec ID/Info              : UTF-8 Plain Text
Title                  : napisy PL 2D.srt
Language                 : Polish
Default                 : No
Forced                  : No

Text #2
ID                    : 5
Format                  : UTF-8
Codec ID                 : S_TEXT/UTF8
Codec ID/Info              : UTF-8 Plain Text
Title                  : napisy ENG 2D.srt
Language                 : English
Default                 : No
Forced                  : No

Text #3
ID                    : 6
Format                  : PGS
Muxing mode               : zlib
Codec ID                 : S_HDMV/PGS
Codec ID/Info              : The same subtitle format used on BDs/HD-DVDs
Title                  : napisy PL 3D.sup
Language                 : Polish
Default                 : No
Forced                  : No

Text #4
ID                    : 7
Format                  : PGS
Muxing mode               : zlib
Codec ID                 : S_HDMV/PGS
Codec ID/Info              : The same subtitle format used on BDs/HD-DVDs
Title                  : napisy ENG 3D.sup
Language                 : English
Default                 : No
Forced                  : No

Source:
A/V-Kubo.and.the.Two.Strings.2016.1080p.3D.BluRay.AVC.DTS-HD.MA.5.1-FGT
Dubbing PL - BD
Thanks - Sonda

Lista plików Show/Hide [Pokaż/Ukryj]
Trackery
  • udp://tracker.leechers-paradise.org:6969/announce
  • http://agusiq-torrents.pl:6969/announce
  • http://mgtracker.org:2710/announce
  • http://pow7.com/announce
  • http://pow7.com:80/announce
  • http://tracker.tfile.me/announce
  • http://retracker.omsk.ru:2710/announce

Brak komentarzy!

Call of Dutywołyń2016Wołyń 2016infernovikingsAAlegion samobójcówsullyaautomapawindowsBattlefield 1paktdziewczyna z pociągum jak miłośćwindows 7windows 10star warswikingowiethe walking deadAWestworldprzełęcz ocalonych3%belferNeed For Speedpitbullwalking dead
Żaden z plików nie znajduje się na serwerze. Torrenty są własnością użytkowników. Administrator serwisu nie może ponieść konsekwencji za to co użytkownicy wstawiają, lub za to co czynią na stronie. Nie możesz używać tego serwisu do rozpowszechniania lub ściągania materiałów do których nie masz odpowiednich praw lub licencji. Użytkownicy odpowiedzialni są za przestrzeganie tych zasad.
Copyright © 2016 torrentyorg.pl

Najlepsze strony Torrentowe