TV / Sci-Fi
Westworld S01E09 - The Well-Tempered Clavier [1080p.WEBRip.x264.AC3] [Lektor PL]


Dodał: Lukarusi
Data dodania:
2016-11-30 11:43:41
Rozmiar: 1.96 GB
Ostat. aktualizacja:
2017-01-14 22:21:49
Seedów: 111
Peerów: 43


Komentarze: 0

Info:

produkcja: USA
gatunek: Dramat, Sci-Fi, Western
reżyseria: Jonathan Nolan, Jonny Campbell, Richard J. Lewis
scenariusz: Michael Crichton, Jonathan Nolan, Lisa Joy Nolan
zdjęcia: Brendan Galvin, Robert McLachlan, Paul Cameron
muzyka: Ramin Djawadi
czas trwania: ok. 58 min.

Opis:

Westworld to najnowocześniejszy, wysoko wyspecjalizowany park rozrywki. Tu każdy może spełnić swoje nawet najbardziej mroczne fantazje. Nie ma w nim żadnych zasad ani ograniczeń, a dr Robert Ford, który zarządza parkiem, to bezkompromisowy wizjoner, który dąży do celu bez względu na cenę. Niespodziewana awaria sprawia jednak, że dotychczas usłużne ludziom roboty wpadają w morderczy szał.

Obsada:

Anthony Hopkins - Dr. Robert Ford
Evan Rachel Wood - Dolores Abernathy
Thandie Newton - Maeve Millay
Jeffrey Wright - Bernard Lowe
James Marsden - Teddy Flood
Luke Hemsworth - Ashley Stubbs
Sidse Babett Knudsen - Theresa Cullen
Simon Quarterman - Lee Sizemore
Angela Sarafyan - Clementine Pennyfeather
Shannon Woodward - Elsie Hughes

Dane techniczne:

Format : Matroska
Format version : Version 4 / Version 2
File size : 1.96 GiB
Duration : 58mn 24s
Overall bit rate : 4 814 Kbps
Encoded date : UTC 2016-11-30 07:16:08

Video
ID : 1
Format : AVC
Format/Info : Advanced Video Codec
Format profile : High@L4.1
Format settings, CABAC : Yes
Format settings, ReFrames : 5 frames
Codec ID : V_MPEG4/ISO/AVC
Duration : 58mn 24s
Bit rate : 4 500 Kbps
Width : 1 920 pixels
Height : 1 080 pixels
Display aspect ratio : 16:9
Frame rate mode : Constant
Frame rate : 23.976 fps
Color space : YUV
Chroma subsampling : 4:2:0
Bit depth : 8 bits
Scan type : Progressive
Bits/(Pixel*Frame) : 0.091
Stream size : 1.77 GiB (90%)
Writing library : x264 core 148 r2665

Audio
ID : 2
Format : AC-3
Format/Info : Audio Coding 3
Mode extension : CM (complete main)
Format settings, Endianness : Big
Codec ID : A_AC3
Duration : 58mn 24s
Bit rate mode : Constant
Bit rate : 384 Kbps
Channel(s) : 2 channels
Channel positions : Front: L R
Sampling rate : 48.0 KHz
Bit depth : 16 bits
Compression mode : Lossy
Stream size : 160 MiB (8%)
Language : Polish

Lista plików Show/Hide [Pokaż/Ukryj]
Trackery
  • udp://9.rarbg.com:2710/announce
  • udp://9.rarbg.me:2710/announce
  • http://tracker.filetracker.pl:8089/announce
  • http://agusiq-torrents.pl:6969/announce
  • udp://eddie4.nl:6969/announce
  • udp://shadowshq.eddie4.nl:6969/announce
  • udp://tracker.leechers-paradise.org:6969/announce
  • http://tracker.torrentyorg.pl/announce
  • http://mgtracker.org:2710/announce
  • http://94.228.192.98/announce
  • udp://tracker.openbittorrent.com:80/announce
  • udp://10.rarbg.com/announce
  • http://tracker.immortaltorrent.pl/announce
  • udp://sugoi.pomf.se:80/announce
  • http://tracker.trackerfix.com/announce
  • http://tracker.tfile.me/announce
  • http://tracker.aletorrenty.pl:2710/announce
  • http://retracker.omsk.ru:2710/announce
  • udp://tracker.glotorrents.com:6969/announce
  • udp://torrent.gresille.org:80/announce
  • udp://poloniumsurfer.tk:6969/announce
  • udp://tracker.pomf.se:80/announce

Brak komentarzy!

Żaden z plików nie znajduje się na serwerze. Torrenty są własnością użytkowników. Administrator serwisu nie może ponieść konsekwencji za to co użytkownicy wstawiają, lub za to co czynią na stronie. Nie możesz używać tego serwisu do rozpowszechniania lub ściągania materiałów do których nie masz odpowiednich praw lub licencji. Użytkownicy odpowiedzialni są za przestrzeganie tych zasad.
Copyright © 2016 torrentyorg.pl

Najlepsze strony Torrentowe