XviD/DivX / Thriller
Inferno *2016* [KORSUB] [HDRip] [XviD-zibi6248] [Napisy PL]


Dodał: zibi6248
Data dodania:
2016-12-01 16:22:55
Rozmiar: 1.19 GB
Ostat. aktualizacja:
2016-12-30 07:21:44
Seedów: 277
Peerów: 13


Komentarze: 1

...( Info )...

Produkcja: Japonia, Turcja, USA, Węgry
Gatunek: Thriller
Premiera: 14 października 2016 (Polska), 12 października 2016 (świat)
Reżyseria: Ron Howard
Scenariusz: David Koepp
https://www.youtube.com/watch?v=E1bJ1WAGCys

...( Opis )...

Supertrio: Tom Hanks, Ron Howard i Dan Brown przedstawia ekranizację najlepiej sprzedającej się książki 2013 roku - "Inferno". Światowej sławy profesor w dziedzinie symboliki Robert Langdon (dwukrotny laureat Oscara Tom Hanks) śladami poematu Dantego usiłuje rozwikłać zagadkę symbolu, który znajduje w marynarce, kiedy budzi się - pogrążony w amnezji - w jednym z włoskich szpitali. Będzie to najtrudniejsze zadanie w karierze Langdona, na którego zewsząd czeka niebezpieczeństwo.

...( Obsada )...

★ Tom Hanks .... Robert Langdon
★ Felicity Jones .... Sienna Brooks
★ Omar Sy .... Christoph Bouchard
★ Irrfan Khan .... Harry Sims
★ Sidse Babett Knudsen .... Elizabeth Sinskey
★ Ben Foster .... Bertrand Zobrist
★ Ana Ularu .... Vayentha
★ Ida Darvish .... Marta Alvarez

...( Dane Techniczne )...

General
Complete name : C:\Users\zbysz\Desktop\Inferno 2016 [KORSUB] [HDRip] [XviD-zibi6248] [Napisy PL].avi
Format : AVI
Format/Info : Audio Video Interleave
Format profile : OpenDML
File size : 1.19 GiB
Duration : 2 h 1 min
Overall bit rate : 1 395 kb/s

Video
ID : 0
Format : MPEG-4 Visual
Format profile : Simple@L3
Format settings, BVOP : No
Format settings, QPel : No
Format settings, GMC : No warppoints
Format settings, Matrix : Default (H.263)
Codec ID : XVID
Codec ID/Hint : XviD
Duration : 2 h 1 min
Bit rate : 1 250 kb/s
Width : 640 pixels
Height : 480 pixels
Display aspect ratio : 4:3
Frame rate : 23.976 (24000/1001) FPS
Original frame rate : 23.000 FPS
Color space : YUV
Chroma subsampling : 4:2:0
Bit depth : 8 bits
Scan type : Progressive
Compression mode : Lossy
Bits/(Pixel*Frame) : 0.170
Stream size : 1.06 GiB (90%)
Writing library : XviD 1.2.1 (UTC 2008-12-04)

Audio
ID : 1
Format : MPEG Audio
Format version : Version 1
Format profile : Layer 3
Mode : Joint stereo
Mode extension : MS Stereo
Codec ID : 55
Codec ID/Hint : MP3
Duration : 2 h 1 min
Bit rate mode : Constant
Bit rate : 128 kb/s
Channel(s) : 2 channels
Sampling rate : 48.0 kHz
Compression mode : Lossy
Stream size : 111 MiB (9%)
Alignment : Aligned on interleaves
Interleave, duration : 24 ms (0.58 video frame)
Writing library : LAME3.98.2

Lista plików Show/Hide [Pokaż/Ukryj]
Trackery
  • http://auratorrent.pl:8089/announce
  • http://agusiq-torrents.pl:6969/announce
  • http://tracker.devil-torrents.pl/announce
  • http://tracker.electro-torrent.pl/announce
  • udp://shadowshq.eddie4.nl:6969/announce
  • udp://tracker.opentrackr.org:1337/announce
  • udp://9.rarbg.me:2710/announce
  • udp://9.rarbg.to:2710/announce
  • http://tracker.filetracker.pl:8089/announce
  • http://mgtracker.org:2710/announce
  • http://pow7.com/announce
  • http://pow7.com:80/announce
  • http://tracker.tfile.me/announce
  • http://retracker.omsk.ru:2710/announce

<< Poprzednia      Następna >>
1 - 1

Dodał: BigupTHC Data: 2016-12-03 08:17:30

Chińskie napisy, tandetnie się ogląda 3 cześć tak dobrej trylogii. Generalnie polecam poczekać na lepszą jakość BEZ CHIŃSKICH NAPISÓW. Pozdrawiam.

1 - 1
<< Poprzednia      Następna >>

Żaden z plików nie znajduje się na serwerze. Torrenty są własnością użytkowników. Administrator serwisu nie może ponieść konsekwencji za to co użytkownicy wstawiają, lub za to co czynią na stronie. Nie możesz używać tego serwisu do rozpowszechniania lub ściągania materiałów do których nie masz odpowiednich praw lub licencji. Użytkownicy odpowiedzialni są za przestrzeganie tych zasad.
Copyright © 2016 torrentyorg.pl

Najlepsze strony Torrentowe