TV / Sci-Fi
Westworld S01E10 [720p] [HDTV] [x264] [AVS] [ENG]


Dodał: Uploader
Data dodania:
2016-12-05 06:49:01
Rozmiar: 1.73 GB
Ostat. aktualizacja:
2016-12-05 08:23:49
Seedów: 6657
Peerów: 14197


Komentarze: 0

...( Info )...

Produkcja: USA
Gatunek: Western, Sci-Fi
Czas produkcji: 2016
Zdjęcia: Paul Cameron, David Franco
Muzyka: Ramin Djawadi

...( Opis )...

Westworld to najnowocześniejszy, wysoko wyspecjalizowany park rozrywki. Tu każdy może spełnić swoje nawet najbardziej mroczne fantazje. Nie ma w nim żadnych zasad ani ograniczeń, a dr Robert Ford (Anthony Hopkins), który zarządza parkiem, to bezkompromisowy wizjoner, który dąży do celu bez względu na cenę. Niespodziewana awaria sprawia jednak, że dotychczas usłużne ludziom roboty wpadają w morderczy szał.

...( Obsada )...

★ Anthony Hopkins .... Dr Robert Ford
★ Evan Rachel Wood .... Dolores Abernathy
★ Jeffrey Wright .... Bernard Lowe
★ Rodrigo Santoro .... Hector Escaton
★ Shannon Woodward .... Elsie Hughes
★ Ingrid Bolsø Berdal .... Armistice
★ Angela Sarafyan .... Clementine Pennyfeather
★ Simon Quarterman .... Lee Sizemore

...( Dane Techniczne )...

Video
ID : 1
Format : AVC
Format/Info : Advanced Video Codec
Format profile : High@L4.1
Format settings, CABAC : Yes
Format settings, ReFrames : 5 frames
Codec ID : V_MPEG4/ISO/AVC
Duration : 1h 30mn
Bit rate : 2 312 Kbps
Width : 1 280 pixels
Height : 716 pixels
Display aspect ratio : 16:9
Frame rate mode : Constant
Frame rate : 23.976 (24000/1001) fps
Color space : YUV
Chroma subsampling : 4:2:0
Bit depth : 8 bits
Scan type : Progressive
Bits/(Pixel*Frame) : 0.105
Stream size : 1.45 GiB (84%)
Writing library : x264 core 148 r2721 72d53ab
Encoding settings : cabac=1 / ref=5 / deblock=1:0:0 / analyse=0x3:0x113 / me=hex / subme=8 / psy=1 / psy_rd=1.00:0.00 / mixed_ref=1 / me_range=16 / chroma_me=1 / trellis=2 / 8x8dct=1 / cqm=0 / deadzone=21,11 / fast_pskip=1 / chroma_qp_offset=-2 / threads=22 / lookahead_threads=3 / sliced_threads=0 / nr=0 / decimate=1 / interlaced=0 / bluray_compat=0 / constrained_intra=0 / bframes=3 / b_pyramid=2 / b_adapt=1 / b_bias=0 / direct=3 / weightb=1 / open_gop=0 / weightp=2 / keyint=250 / keyint_min=23 / scenecut=40 / intra_refresh=0 / rc_lookahead=50 / rc=crf / mbtree=1 / crf=18.0 / qcomp=0.60 / qpmin=0 / qpmax=69 / qpstep=4 / ip_ratio=1.40 / aq=1:1.00
Default : Yes
Forced : No
Color range : Limited
Matrix coefficients : BT.709

Audio
ID : 2
Format : AC-3
Format/Info : Audio Coding 3
Mode extension : CM (complete main)
Format settings, Endianness : Big
Codec ID : A_AC3
Duration : 1h 30mn
Bit rate mode : Constant
Bit rate : 384 Kbps
Channel(s) : 6 channels
Channel positions : Front: L C R, Side: L R, LFE
Sampling rate : 48.0 KHz
Frame rate : 31.250 fps (1536 spf)
Compression mode : Lossy
Stream size : 247 MiB (14%)
Default : Yes
Forced : No

Lista plików Show/Hide [Pokaż/Ukryj]
Trackery
  • http://tracker.trackerfix.com:80/announce
  • udp://9.rarbg.to:2710/announce
  • udp://9.rarbg.me:2710/announce

Brak komentarzy!

Żaden z plików nie znajduje się na serwerze. Torrenty są własnością użytkowników. Administrator serwisu nie może ponieść konsekwencji za to co użytkownicy wstawiają, lub za to co czynią na stronie. Nie możesz używać tego serwisu do rozpowszechniania lub ściągania materiałów do których nie masz odpowiednich praw lub licencji. Użytkownicy odpowiedzialni są za przestrzeganie tych zasad.
Copyright © 2016 torrentyorg.pl

Najlepsze strony Torrentowe