TS/CAM / Wojenny
Przełęcz ocalonych - Hacksaw Ridge *2016* [HDCAM x264 AC3] [ENG]


Dodał: Uploader
Data dodania:
2016-12-09 16:16:15
Rozmiar: 1.95 GB
Ostat. aktualizacja:
2017-01-08 19:31:33
Seedów: 13869
Peerów: 4109


Komentarze: 1

...( Info )...

produkcja: Australia,USA
gatunek: Biograficzny,Dramat,Wojenny
premiera: 4 listopada 2016 (Polska) 4 września 2016 (świat)
reżyseria: Mel Gibson
scenariusz: Robert Schenkkan,Andrew Knight
czas trwania: 2 godz. 2 min.


...( Opis )...

Schyłek drugiej wojny światowej. Armia amerykańska toczy ciężkie walki z Japończykami o każdy skrawek lądu na Pacyfiku. Strategicznym celem jest wyspa Okinawa, której zdobycie może oznaczać ostateczną klęskę Japonii. Wśród setek tysięcy amerykańskich żołnierzy trafia tu Desmond T. Doss, sanitariusz, który ze względu na przekonania odmówił noszenia broni. Traktowany z nieufnością, oskarżany o tchórzostwo, wkrótce udowodni jak bardzo się wobec niego mylono. Podczas najcięższych starć, wielokrotnie ryzykując życiem, wydostaje z ognia walki ponad 70 rannych żołnierzy. Tak rodzi się legenda bezbronnego bohatera.


...( Obsada )...

Andrew Garfield - Desmond T. Doss
Sam Worthington - kpt.Glover
Luke Bracey - Smittym
Vince Vaughn - sierż. Howell
i inni.


...( Dane Techniczne )...

Format : MKV
File size : 1.93 GiB
Duration : 2 h 2 min
Overall bit rate mode : Variable
Overall bit rate : 2 252 kb/s
Language: English

Video
Format : AVC
Format/Info : Advanced Video Codec
Format profile : High@L4.2
Format settings, CABAC : Yes
Format settings, ReFrames : 4 frames
Codec ID : V_MPEG4/ISO/AVC
Duration : 2 h 2 min
Bit rate mode : Variable
Bit rate : 2 000 kb/s
Maximum bit rate : 62.5 Mb/s
Width : 720 pixels
Height : 320 pixels
Display aspect ratio : 2.25:1
Frame rate mode : Constant
Frame rate : 30.000 FPS
Color space : YUV
Chroma subsampling : 4:2:0
Bit depth : 8 bits
Scan type : Progressive
Bits/(Pixel*Frame) : 0.289
Stream size : 1.67 GiB

Audio
Format : AC-3
Format/Info : Audio Coding 3
Mode extension : CM (complete main)
Format settings, Endianness : Big
Codec ID : A_AC3
Duration : 2 h 2 min
Bit rate mode : Constant
Bit rate : 256 kb/s
Channel(s) : 2 channels
Channel positions : Front: L R
Sampling rate : 48.0 kHz
Frame rate : 31.250 FPS (1536 spf)
Compression mode : Lossy
Stream size : 225 MiB (11%)
Default : Yes
Forced : No

Lista plików Show/Hide [Pokaż/Ukryj]
Trackery
  • udp://tracker.coppersurfer.tk:6969
  • udp://tracker.ilibr.org:6969/announce
  • udp://tracker.coppersurfer.tk:6969/announce
  • udp://tracker.ilibr.org:80/announce
  • udp://shadowshq.yi.org:6969/announce
  • udp://eddie4.nl:6969/announce
  • udp://tracker.leechers-paradise.org:6969/announce
  • udp://tracker.opentrackr.org:1337/announce
  • udp://tracker.zer0day.to:1337/announce
  • udp://9.rarbg.me:2710/announce
  • udp://9.rarbg.to:2710/announce
  • udp://ipv4.tracker.harry.lu:80/announce
  • udp://p4p.arenabg.ch:1337/announce
  • udp://p4p.arenabg.com:1337/announce
  • udp://explodie.org:6969/announce

<< Poprzednia      Następna >>
1 - 1

Dodał: paphiloon Data: 2016-12-10 17:13:45

Napisy są

1 - 1
<< Poprzednia      Następna >>

wikingowieprzełęcz ocalonychwindows 10automapawołyńwindows 7AWołyń 2016sullyinferno2016belferstar warswindowsNeed For Speedpitbullam jak miłośćABattlefield 1vikingsAdziewczyna z pociągu3%Call of Dutywalking deadWestworldpaktlegion samobójcówthe walking dead
Żaden z plików nie znajduje się na serwerze. Torrenty są własnością użytkowników. Administrator serwisu nie może ponieść konsekwencji za to co użytkownicy wstawiają, lub za to co czynią na stronie. Nie możesz używać tego serwisu do rozpowszechniania lub ściągania materiałów do których nie masz odpowiednich praw lub licencji. Użytkownicy odpowiedzialni są za przestrzeganie tych zasad.
Copyright © 2016 torrentyorg.pl

Najlepsze strony Torrentowe