x264 / Biograficzny
Sully *2016* [BDRemux.1080p.x264.Atmos.TrueHD7.1-iFT] [Multi4-ENG]


Dodał: Tenguken
Data dodania:
2016-12-12 20:34:18
Rozmiar: 20.93 GB
Ostat. aktualizacja:
2016-12-17 12:02:21
Seedów: 38
Peerów: 0


Komentarze: 0

Info :

Tytuł:Sully.2016.REMUX.BluRay.1080p.AVC.Atmos.TrueHD7.1-iFT [Gift-44]
Premiera: 8 września 2016
Gatunek: Biograficzny, Dramat
Reżyseria: Clint Eastwood
Scenariusz: Todd Komarnicki
Produkcja: USA
Źródło: Blu-Ray
Wydanie IFT: grudzień 2016
Napisy: EN/FR/ES/PT

Informacja i okładka: Tenguken

Opis :

15 stycznia 2009 roku cały świat był świadkiem "Cudu na rzece Hudson", kiedy to kapitan "ully" Sullenberger posadził uszkodzony samolot na zimnych wodach rzeki Hudson, ratując życie 155 osobom znajdującym się na pokładzie. Jednak, mimo że opinia publiczna i media głośno wychwalały Sully'ego za jego wyjątkowe umiejętności lotnicze, w czasie śledztwa zostały ujawnione fakty, które mogły zniszczyć jego reputację i karierę.

Obsada :

Tom Hanks   jako: Chesley "Sully" Sullenberger
Aaron Eckhart jako: Jeff Skiles
Laura Linney  jako: Lorraine Sullenberger
Mike O'Malley jako: Charles Porter
Anna Gunn   jako: Elizabeth Davis
Jamey Sheridan jako: Ben Edwards
Ann Cusack   jako: Donna Dent
Jane Gabbert  jako: Sheila Dail

Dane Techniczne :

** General **

Format           : Matroska
Format version       : Version 4 / Version 2
File size         : 20.9 GiB
Duration          : 1 h 35 min
Overall bit rate mode   : Variable
Overall bit rate      : 31.3 Mb/s
Encoded date        : UTC 2016-12-06 19:45:24
Writing application    : mkvmerge v8.5.1 64bit

** Video **

Format           : AVC
Format/Info        : Advanced Video Codec
Format settings, CABAC   : Yes
Format settings, ReFrames : 4 frames
Codec ID          : V_MPEG4/ISO/AVC
Duration          : 1 h 35 min
Bit rate mode       : Variable
Bit rate          : 23.7 Mb/s
Maximum bit rate      : 30.0 Mb/s
Width           : 1 920 pixels
Height           : 1 080 pixels
Display aspect ratio    : 16:9
Frame rate mode      : Constant
Frame rate         : 23.976 FPS
Color space        : YUV
Chroma subsampling     : 4:2:0
Bit depth         : 8 bits
Scan type         : Progressive
Bits/(Pixel*Frame)     : 0.477
Stream size        : 15.9 GiB (76%)
Default          : Yes

** Audio #1 **

Lang            : Eng
Format           : Atmos / TrueHD
Codec ID          : A_TRUEHD
Duration          : 1 h 35 min
Bit rate mode       : Variable
Bit rate          : 6 798 kb/s
Maximum bit rate      : 12.0 Mb/s
Channel(s)         : Object Based / 8 channels
Sampling rate       : 48.0 kHz
Frame rate         : 1 200.000 FPS (40 spf)
Compression mode      : Lossless
Stream size        : 4.55 GiB (22%)
Default          : Yes

** Audio #2 **

Lang            : Eng
Format           : AC-3
Format/Info        : Audio Coding 3
Mode extension       : CM (complete main)
Codec ID          : A_AC3
Duration          : 1 h 35 min
Bit rate mode       : Constant
Bit rate          : 640 kb/s
Channel(s)         : 6 channels
Sampling rate       : 48.0 kHz
Frame rate         : 31.250 FPS (1536 spf)
Compression mode      : Lossy
Stream size        : 439 MiB (2%)
Default          : No

Trailer :
https://www.youtube.com/watch?v=mjKEXxO2KNE&t=9s

Lista plików Show/Hide [Pokaż/Ukryj]
Trackery
  • http://tracker.opentrackr.org:1337/announce
  • udp://tracker.coppersurfer.tk:6969/announce
  • udp://tracker.coppersurfer.tk:80/announce
  • udp://62.138.0.158:6969/announce
  • udp://37.19.5.155:2710/announce
  • http://tracker.mg64.net:6881/announce
  • udp://9.rarbg.com:2710/announce
  • udp://tracker.mg64.net:6969/announce
  • udp://tracker.internetwarriors.net:1337/announce
  • udp://eddie4.nl:6969/announce
  • udp://tracker.leechers-paradise.org:6969/announce
  • udp://shadowshq.yi.org:6969/announce
  • udp://shadowshq.eddie4.nl:6969/announce
  • udp://94.23.183.33:6969/announce

Brak komentarzy!

Żaden z plików nie znajduje się na serwerze. Torrenty są własnością użytkowników. Administrator serwisu nie może ponieść konsekwencji za to co użytkownicy wstawiają, lub za to co czynią na stronie. Nie możesz używać tego serwisu do rozpowszechniania lub ściągania materiałów do których nie masz odpowiednich praw lub licencji. Użytkownicy odpowiedzialni są za przestrzeganie tych zasad.
Copyright © 2016 torrentyorg.pl

Najlepsze strony Torrentowe