TV / Horror
The Walking Dead S07E08 - Hearts Still Beating [1080p.WEB-DL.H.264.AC3] [Lektor PL, ENG+Napisy PL]


Dodał: Lukarusi
Data dodania:
2016-12-13 16:20:28
Rozmiar: 2.55 GB
Ostat. aktualizacja:
2017-01-17 14:40:11
Seedów: 227
Peerów: 69


Komentarze: 0

Info:

produkcja: USA
gatunek: Dramat, Horror, Thriller
reżyseria: Frank Darabont, Ernest R. Dickerson, Guy Ferland
scenariusz: Frank Darabont, Robert Kirkman, Tony Moore
zdjęcia: David Tattersall
muzyka: Bear McCreary
czas trwania: ok. 60 min.

Opis:

Serial opowiada o czasie następującym po pandemicznej apokalipsie, po której świat opanowały zombie. Szeryf Rick Grimes podróżuje wraz z rodziną i z garstką ocalałych, w bezustannym poszukiwaniu bezpiecznego schronienia. Ciągła presja oraz codzienne zmagania się z zagrożeniem i śmiercią zbierają krwawe żniwo, popychając wielu ku otchłani najgłębszego ludzkiego okrucieństwa. W trakcie walki o przeżycie swojej rodziny, Rick odkrywa, że wszechogarniający strach ocalałych może być dużo bardziej niebezpieczny, niż przemierzające świat zombie.

Obsada:

Andrew Lincoln - Rick Grimes
Steven Yeun - Glenn Rhee
Danai Gurira - Michonne
Lauren Cohan - Maggie Greene
Norman Reedus - Daryl Dixon
Melissa McBride - Carol Peletier
Michael Cudlitz - Abraham Ford
Lennie James - Morgan Jones
Sonequa Martin-Green - Sasha Williams

Dane techniczne:

Format : Matroska
Format version : Version 4 / Version 2
File size : 2.55 GiB
Duration : 1h 0mn
Overall bit rate : 6 029 Kbps
Encoded date : UTC 2016-12-13 15:03:37

Video
ID : 1
Format : AVC
Format/Info : Advanced Video Codec
Format profile : High@L4.0
Format settings, CABAC : Yes
Format settings, ReFrames : 4 frames
Codec ID : V_MPEG4/ISO/AVC
Duration : 1h 0mn
Bit rate : 5 141 Kbps
Width : 1 916 pixels
Height : 1 076 pixels
Display aspect ratio : 16:9
Frame rate mode : Constant
Frame rate : 23.976 fps
Color space : YUV
Chroma subsampling : 4:2:0
Bit depth : 8 bits
Scan type : Progressive
Bits/(Pixel*Frame) : 0.104
Stream size : 2.18 GiB (85%)
Color primaries : BT.709
Transfer characteristics : BT.709
Matrix coefficients : BT.709

Audio 1
ID : 2
Format : AC-3
Format/Info : Audio Coding 3
Mode extension : CM (complete main)
Format settings, Endianness : Big
Codec ID : A_AC3
Duration : 1h 0mn
Bit rate mode : Constant
Bit rate : 384 Kbps
Channel(s) : 2 channels
Channel positions : Front: L R
Sampling rate : 48.0 KHz
Bit depth : 16 bits
Compression mode : Lossy
Stream size : 166 MiB (6%)
Language : Polish
Default : Yes
Forced : No

Audio 2
ID : 3
Format : AC-3
Format/Info : Audio Coding 3
Mode extension : CM (complete main)
Format settings, Endianness : Big
Codec ID : A_AC3
Duration : 1h 0mn
Bit rate mode : Constant
Bit rate : 384 Kbps
Channel(s) : 6 channels
Channel positions : Front: L C R, Side: L R, LFE
Sampling rate : 48.0 KHz
Bit depth : 16 bits
Compression mode : Lossy
Delay relative to video : 16ms
Stream size : 166 MiB (6%)
Language : English
Default : No
Forced : No

Text
ID : 4
Format : UTF-8
Codec ID : S_TEXT/UTF8
Codec ID/Info : UTF-8 Plain Text
Language : Polish
Default : No
Forced : No

Lista plików Show/Hide [Pokaż/Ukryj]
Trackery
  • udp://9.rarbg.me:2710/announce
  • udp://9.rarbg.com:2710/announce
  • http://mgtracker.org:2710/announce
  • http://tracker.filetracker.pl:8089/announce
  • http://tracker.torrentyorg.pl/announce
  • http://agusiq-torrents.pl:6969/announce
  • udp://eddie4.nl:6969/announce
  • udp://shadowshq.eddie4.nl:6969/announce
  • udp://tracker.leechers-paradise.org:6969/announce
  • http://94.228.192.98/announce
  • udp://tracker.openbittorrent.com:80/announce
  • http://tracker.trackerfix.com/announce
  • http://tracker.immortaltorrent.pl/announce
  • udp://10.rarbg.com/announce
  • udp://sugoi.pomf.se:80/announce
  • http://tracker.tfile.me/announce
  • http://tracker.aletorrenty.pl:2710/announce
  • http://retracker.omsk.ru:2710/announce
  • udp://tracker.glotorrents.com:6969/announce
  • udp://torrent.gresille.org:80/announce
  • udp://poloniumsurfer.tk:6969/announce
  • udp://tracker.pomf.se:80/announce

Brak komentarzy!

Żaden z plików nie znajduje się na serwerze. Torrenty są własnością użytkowników. Administrator serwisu nie może ponieść konsekwencji za to co użytkownicy wstawiają, lub za to co czynią na stronie. Nie możesz używać tego serwisu do rozpowszechniania lub ściągania materiałów do których nie masz odpowiednich praw lub licencji. Użytkownicy odpowiedzialni są za przestrzeganie tych zasad.
Copyright © 2016 torrentyorg.pl

Najlepsze strony Torrentowe