TV / Przygodowy
Vikings S04E12 - The Vision [1080p.WEB-DL.H.264.DD5.1] [Napisy PL]


Dodał: Lukarusi
Data dodania:
2016-12-13 16:59:09
Rozmiar: 1.71 GB
Ostat. aktualizacja:
2017-01-20 16:48:48
Seedów: 34
Peerów: 13


Komentarze: 0

Info:

produkcja: Irlandia, Kanada
gatunek: Dramat historyczny
reżyseria: Ciaran Donnelly, Johan Renck, Ken Girotti
scenariusz: Michael Hirst, Ken Girotti
zdjęcia: John S. Bartley
muzyka: Trevor Morris
czas trwania: ok. 44 min.

Opis:

"Vikings" opowiada historię Ragnara Lothbroka oraz jego braci i rodziny. Serial ukazuje jak Ragnar staje się królem wikińskich plemion. Poza byciem nieustraszonym wojownikiem, Ragnar jest ucieleśnieniem nordyckiej tradycji i oddania się bogom. Legenda mówi, że jest on bezpośrednim potomkiem Odyna, boga wojny i wojowników.

Obsada:

Travis Fimmel - Ragnar Lothbrok
Katheryn Winnick - Lagertha Lothbrok
Gustaf Skarsgård - Floki
Alexander Ludwig - Bjorn Ironside
Alyssa Sutherland - Aslaug
Alex Høgh Andersen - Ivar
Marco Ilsø - Hvitserk
David Lindström - Sigurd
Jordan Patrick Smith - Ubbe
Josefin Asplund - Astrid
Maude Hirst - Helga
Ida Nielsen - Margrethe

Dane techniczne:

Format : Matroska
Format version : Version 4 / Version 2
File size : 1.71 GiB
Duration : 44mn 11s
Overall bit rate : 5 531 Kbps
Encoded date : UTC 2016-12-13 15:43:32

Video
ID : 1
Format : AVC
Format/Info : Advanced Video Codec
Format profile : High@L4.0
Format settings, CABAC : Yes
Format settings, ReFrames : 4 frames
Codec ID : V_MPEG4/ISO/AVC
Duration : 44mn 11s
Bit rate : 5 037 Kbps
Width : 1 916 pixels
Height : 1 076 pixels
Display aspect ratio : 16:9
Frame rate mode : Constant
Frame rate : 23.976 fps
Color space : YUV
Chroma subsampling : 4:2:0
Bit depth : 8 bits
Scan type : Progressive
Bits/(Pixel*Frame) : 0.102
Stream size : 1.55 GiB (91%)
Color primaries : BT.709
Transfer characteristics : BT.709
Matrix coefficients : BT.709

Audio
ID : 2
Format : AC-3
Format/Info : Audio Coding 3
Mode extension : CM (complete main)
Format settings, Endianness : Big
Codec ID : A_AC3
Duration : 44mn 11s
Bit rate mode : Constant
Bit rate : 384 Kbps
Channel(s) : 6 channels
Channel positions : Front: L C R, Side: L R, LFE
Sampling rate : 48.0 KHz
Bit depth : 16 bits
Compression mode : Lossy
Stream size : 121 MiB (7%)
Language : English

Text
ID : 3
Format : UTF-8
Codec ID : S_TEXT/UTF8
Codec ID/Info : UTF-8 Plain Text
Language : Polish

Lista plików Show/Hide [Pokaż/Ukryj]
Trackery
  • udp://9.rarbg.com:2710/announce
  • http://mgtracker.org:2710/announce
  • http://tracker.filetracker.pl:8089/announce
  • http://agusiq-torrents.pl:6969/announce
  • udp://9.rarbg.me:2710/announce
  • http://tracker.torrentyorg.pl/announce
  • udp://eddie4.nl:6969/announce
  • udp://shadowshq.eddie4.nl:6969/announce
  • udp://tracker.leechers-paradise.org:6969/announce
  • http://94.228.192.98/announce
  • udp://tracker.openbittorrent.com:80/announce
  • http://tracker.trackerfix.com/announce
  • http://tracker.immortaltorrent.pl/announce
  • udp://10.rarbg.com/announce
  • udp://sugoi.pomf.se:80/announce
  • http://tracker.tfile.me/announce
  • http://tracker.aletorrenty.pl:2710/announce
  • http://retracker.omsk.ru:2710/announce
  • udp://tracker.glotorrents.com:6969/announce
  • udp://torrent.gresille.org:80/announce
  • udp://poloniumsurfer.tk:6969/announce
  • udp://tracker.pomf.se:80/announce

Brak komentarzy!

Żaden z plików nie znajduje się na serwerze. Torrenty są własnością użytkowników. Administrator serwisu nie może ponieść konsekwencji za to co użytkownicy wstawiają, lub za to co czynią na stronie. Nie możesz używać tego serwisu do rozpowszechniania lub ściągania materiałów do których nie masz odpowiednich praw lub licencji. Użytkownicy odpowiedzialni są za przestrzeganie tych zasad.
Copyright © 2016 torrentyorg.pl

Najlepsze strony Torrentowe