4K UHD / Dokumentalny
Pejzaże w Czasie-TimeScapes: The Movie 4K (2012)[UHDRip.2160p x264 AC3/DTS][Nowa Zelandia][ENG]


Dodał: happystefan
Data dodania:
2016-12-18 12:47:43
Rozmiar: 9.69 GB
Ostat. aktualizacja:
2017-01-13 15:36:31
Seedów: 2
Peerów: 3


Komentarze: 0

Pejzaże w Czasie-TimeScapes: The Movie 4K (2012)[UHDRip.2160p x264 AC3/DTS[Nowa Zelandia]



reżyseria: Tom Lowe
gatunek: Dokumentalny, Relax
produkcja: Nowa Zelandia
premiera: 17-04-2012
muzyka: Nigel Stanford
zdjęcia: Tom Lowe
czas: 00:48:21




TimeScapes is the debut film from award-winning cinematographer and director Tom Lowe.
The non-narrative film features stunning slow-motion and timelapse cinematography of
the landscapes, people, and wildlife of the American South West.

Zdjęcia do filmu kręcono w Palm Springs, Regionie Big Sur, Parku Narodowym Joshua Tree
(Kalifornia, USA) oraz nad jeziorem Powell (Arizona, USA).

Jest to pierwszy film dostępny w sprzedaży w rozdzielczości 4K.




TimeScapes The Movie (2012) 4K-alE13.mkv
Format : Matroska
Format version : Version 4 / Version 2
File size : 9.62 GiB
Duration : 48mn 21s
Overall bit rate : 28.5 Mbps
Movie name : TimeScapes The Movie (2012) 4K-alE13
Encoded date : UTC 2015-12-07 10:37:56
Writing application : mkvmerge v8.1.0 ('Psychedelic Postcard') 64bit
Writing library : libebml v1.3.1 + libmatroska v1.4.2
DURATION : 00:48:21.344000000
NUMBER_OF_FRAMES : 90667
NUMBER_OF_BYTES : 232107520
_STATISTICS_WRITING_APP : mkvmerge v8.1.0 ('Psychedelic Postcard') 64bit
_STATISTICS_WRITING_DATE_UT : 2015-12-07 10:37:56
_STATISTICS_TAGS : BPS DURATION NUMBER_OF_FRAMES NUMBER_OF_BYTES

Video
ID : 1
Format : AVC
Format/Info : Advanced Video Codec
Format profile : High@L5.1
Format settings, CABAC : Yes
Format settings, ReFrames : 2 frames
Codec ID : V_MPEG4/ISO/AVC
Duration : 48mn 21s
Bit rate : 25.8 Mbps
Width : 3 840 pixels
Height : 2 160 pixels
Display aspect ratio : 16:9
Frame rate mode : Constant
Frame rate : 23.976 fps
Color space : YUV
Chroma subsampling : 4:2:0
Bit depth : 8 bits
Scan type : Progressive
Bits/(Pixel*Frame) : 0.130
Stream size : 8.70 GiB (90%)
Title : TimeScapes The Movie (2012) 4K-alE13
Default : Yes
Forced : No
DURATION : 00:48:21.607000000
NUMBER_OF_FRAMES : 69569
NUMBER_OF_BYTES : 9548954334
_STATISTICS_WRITING_APP : mkvmerge v8.1.0 ('Psychedelic Postcard') 64bit
_STATISTICS_WRITING_DATE_UT : 2015-12-07 10:37:56
_STATISTICS_TAGS : BPS DURATION NUMBER_OF_FRAMES NUMBER_OF_BYTES

Audio #1
ID : 2
Format : DTS
Format/Info : Digital Theater Systems
Mode : 16
Format settings, Endianness : Big
Codec ID : A_DTS
Duration : 48mn 21s
Bit rate mode : Constant
Bit rate : 1 509 Kbps
Channel(s) : 6 channels
Channel positions : Front: L C R, Side: L R, LFE
Sampling rate : 48.0 KHz
Bit depth : 24 bits
Compression mode : Lossy
Stream size : 522 MiB (5%)
Title : TimeScapes The Movie (2012) 4K-alE13_DTS Digital Surround 5.1
Language : English
Default : Yes
Forced : No

Audio #2
ID : 3
Format : AC-3
Format/Info : Audio Coding 3
Mode extension : CM (complete main)
Format settings, Endianness : Big
Codec ID : A_AC3
Duration : 48mn 21s
Bit rate mode : Constant
Bit rate : 640 Kbps
Channel(s) : 6 channels
Channel positions : Front: L C R, Side: L R, LFE
Sampling rate : 48.0 KHz
Compression mode : Lossy
Stream size : 221 MiB (2%)
Title : TimeScapes The Movie (2012) 4K-alE13_Dolby Digital 5.1
Language : English
Default : No
Forced : No

Menu
00:00:00.000 : en:Chapter 01
00:00:00.375 : en:Chapter 02
00:01:05.315 : en:Chapter 03
00:04:28.518 : en:Chapter 04
00:06:45.447 : en:Chapter 05
00:10:38.054 : en:Chapter 06
00:18:13.175 : en:Chapter 07
00:21:04.638 : en:Chapter 08
00:25:24.732 : en:Chapter 09
00:30:27.576 : en:Chapter 10
00:34:26.481 : en:Chapter 11
00:36:51.668 : en:Chapter 12
00:39:45.258 : en:Chapter 13
00:40:37.810 : en:Chapter 14
00:41:39.247 : en:Chapter 15
00:43:43.663 : en:Chapter 16

Lista plików Show/Hide [Pokaż/Ukryj]
Trackery
  • udp://tracker.leechers-paradise.org:6969/announce
  • http://tracker.filetracker.pl:8089/announce
  • udp://tracker.aletorrenty.pl:2710/announce
  • http://torrent.gresille.org/announce.php
  • udp://tracker.openbittorrent.com:80/announce
  • udp://inferno.demonoid.ooo:3392/announce
  • http://tracker.torrenty.org:6969/announce
  • http://tracker.ex.ua/announce
  • http://tracker.aletorrenty.pl:2710/announce

Brak komentarzy!

vikingsCall of DutyWołyń 2016windowspaktthe walking dead2016Westworld3%pitbullsullyaNeed For Speedlegion samobójcówwindows 7infernobelferdziewczyna z pociąguwindows 10m jak miłośćwalking deadwołyńprzełęcz ocalonychAstar warsBattlefield 1wikingowieAAautomapa
Żaden z plików nie znajduje się na serwerze. Torrenty są własnością użytkowników. Administrator serwisu nie może ponieść konsekwencji za to co użytkownicy wstawiają, lub za to co czynią na stronie. Nie możesz używać tego serwisu do rozpowszechniania lub ściągania materiałów do których nie masz odpowiednich praw lub licencji. Użytkownicy odpowiedzialni są za przestrzeganie tych zasad.
Copyright © 2016 torrentyorg.pl

Najlepsze strony Torrentowe