HD / Dramat
Sully *2016* (60FPS) [720p.DTS 5.1.AC3.BluRay.x264-SONDA] [Lektor i Napisy PL] [ENG]


Dodał: sonda
Data dodania:
2016-12-24 16:07:18
Rozmiar: 9.12 GB
Ostat. aktualizacja:
2017-01-19 20:51:28
Seedów: 114
Peerów: 75


Komentarze: 0

http://i.imgur.com/KKv64kP.jpg

Zdrowych spokojnych i wesołych Świąt Bożego Narodzenia i szczęśliwego Nowego Roku
życzy wszystkim sonda

Sully *2016* (60FPS) 720p.DTS 5.1.BDRip-Sonda
================================


gatunek: Biograficzny,Dramat
produkcja: USA
premiera: 2 grudnia 2016 (Polska) 8 września 2016 (świat)
reżyseria: Clint Eastwood
scenariusz: Todd Komarnicki

http://www.imdb.com/title/tt3263904/

Obsada:

Tom Hanks ... Chesley "Sully" Sullenberger
Aaron Eckhart ... Jeff Skiles
Laura Linney ... Lorraine Sullenberger
Mike O'Malley ... Charles Porter
Anna Gunn ... Elizabeth Davis
Jamey Sheridan ... Ben Edwards
Ann Cusack ... Donna Dent
Jane Gabbert ... Sheila Dai

Opis:

15 stycznia 2009 roku cały świat był świadkiem „Cudu na rzece Hudson”, kiedy to kapitan „Sully” Sullenberger posadził uszkodzony samolot na zimnych wodach rzeki Hudson, ratując życie 155 osobom znajdującym się na pokładzie. Jednak, mimo że opinia publiczna i media głośno wychwalały Sully'ego za jego wyjątkowe umiejętności lotnicze, w czasie śledztwa zostały ujawnione fakty, które mogły zniszczyć jego reputację i karierę.

Storyline:

On Thursday, January 15th, 2009, the world witnessed the "Miracle on the Hudson" when Captain Chesley Sullenberger, nicknamed "Sully", glided his disabled plane onto the frigid waters of the Hudson River, saving the lives of all 155 aboard. However, even as Sully was being heralded by the public and the media for his unprecedented feat of aviation skill, an investigation was unfolding that threatened to destroy his reputation and his career.

Screenshot:

http://i.imgur.com/NFg4l0Y.jpg
http://i.imgur.com/ndKnE28.jpg
http://i.imgur.com/KUKWXDf.jpg
http://i.imgur.com/7cbnAoF.jpg


Dane techniczne:

General
Format : Matroska
Format version : Version 2
File size : 9.12 GiB
Duration : 1h 35mn
Overall bit rate : 13.6 Mbps
Movie name : Sully.2016.PL.BDRip.720p.60FPS.Sonda
Encoded date : UTC 2016-12-19 18:22:46
Writing application : mkvmerge v5.7.0 ('The Whirlwind') built on Jul 8 2012 20:08:51
Writing library : libebml v1.2.3 + libmatroska v1.3.0

Video
ID : 1
Format : AVC
Format/Info : Advanced Video Codec
Format profile : High@L4.1
Format settings, CABAC : Yes
Format settings, ReFrames : 6 frames
Codec ID : V_MPEG4/ISO/AVC
Duration : 1h 35mn
Bit rate : 11.0 Mbps
Width : 1 280 pixels
Height : 536 pixels
Display aspect ratio : 2.40:1
Frame rate mode : Constant
Frame rate : 60.000 fps
Original frame rate : 59.940 fps
Color space : YUV
Chroma subsampling : 4:2:0
Bit depth : 8 bits
Scan type : Progressive
Bits/(Pixel*Frame) : 0.267
Stream size : 7.20 GiB (79%)
Title : 60FPS Rip by Sonda
Writing library : x264
Encoding settings : cabac=1 / ref=6 / deblock=1:-1:-1 / rc=2pass
Default : Yes
Forced : No

Audio #1
ID : 2
Format : AC-3
Format/Info : Audio Coding 3
Mode extension : CM (complete main)
Format settings, Endianness : Big
Codec ID : A_AC3
Duration : 1h 35mn
Bit rate mode : Constant
Bit rate : 448 Kbps
Channel count : 6 channels
Channel positions : Front: L C R, Side: L R, LFE
Sampling rate : 48.0 KHz
Bit depth : 16 bits
Compression mode : Lossy
Stream size : 307 MiB (3%)
Title : AC3 5.1 Lektor PL
Language : Polish
Default : Yes
Forced : Yes

Audio #2
ID : 3
Format : AC-3
Format/Info : Audio Coding 3
Mode extension : CM (complete main)
Format settings, Endianness : Big
Codec ID : A_AC3
Duration : 1h 35mn
Bit rate mode : Constant
Bit rate : 640 Kbps
Channel count : 6 channels
Channel positions : Front: L C R, Side: L R, LFE
Sampling rate : 48.0 KHz
Bit depth : 16 bits
Compression mode : Lossy
Stream size : 439 MiB (5%)
Title : AC3 5.1 ENG
Language : English
Default : No
Forced : No

Audio #3
ID : 4
Format : DTS
Format/Info : Digital Theater Systems
Mode : 16
Format settings, Endianness : Big
Codec ID : A_DTS
Duration : 1h 35mn
Bit rate mode : Constant
Bit rate : 1 509 Kbps
Channel count : 6 channels
Channel positions : Front: L C R, Side: L R, LFE
Sampling rate : 48.0 KHz
Bit depth : 24 bits
Compression mode : Lossy
Stream size : 1.01 GiB (11%)
Title : DTS 5.1 ENG
Language : English
Default : No
Forced : No

Text #1
ID : 5
Format : UTF-8
Codec ID : S_TEXT/UTF8
Codec ID/Info : UTF-8 Plain Text
Title : napisy PL.srt
Language : Polish
Default : No
Forced : No

Text #2
ID : 6
Format : UTF-8
Codec ID : S_TEXT/UTF8
Codec ID/Info : UTF-8 Plain Text
Title : napisy ENG.srt
Language : English
Default : No
Forced : No

Text #3
ID : 7
Format : PGS
Muxing mode : zlib
Codec ID : S_HDMV/PGS
Codec ID/Info : The same subtitle format used on BDs/HD-DVDs
Title : napisy PL.sup
Language : Polish
Default : No
Forced : No

Text #4
ID : 8
Format : PGS
Muxing mode : zlib
Codec ID : S_HDMV/PGS
Codec ID/Info : The same subtitle format used on BDs/HD-DVDs
Title : napisy ENG.sup
Language : English
Default : No
Forced : No

Source:
A/V-Sully (2016) Blu-ray CEE 1080p AVC DD5.1- HDCLUB
DTS 5.1 from TrueHD 7.1
Thanks - Sonda

Lista plików Show/Hide [Pokaż/Ukryj]
Trackery
  • udp://tracker.leechers-paradise.org:6969/announce
  • http://agusiq-torrents.pl:6969/announce
  • http://mgtracker.org:2710/announce
  • udp://shadowshq.eddie4.nl:6969/announce
  • udp://tracker.coppersurfer.tk:6969/announce
  • udp://9.rarbg.com:2710/announce
  • http://tracker.tfile.me:80/announce
  • http://retracker.krs-ix.ru:80/announce
  • http://retracker.krs-ix.ru/announce
  • http://tracker.tfile.me/announce

Brak komentarzy!

Żaden z plików nie znajduje się na serwerze. Torrenty są własnością użytkowników. Administrator serwisu nie może ponieść konsekwencji za to co użytkownicy wstawiają, lub za to co czynią na stronie. Nie możesz używać tego serwisu do rozpowszechniania lub ściągania materiałów do których nie masz odpowiednich praw lub licencji. Użytkownicy odpowiedzialni są za przestrzeganie tych zasad.
Copyright © 2016 torrentyorg.pl

Najlepsze strony Torrentowe