x264 / Thriller
Inferno *2016* [1080p.WEB-DL.DD5.1.H264-FGT] [ENG]


Dodał: Uploader
Data dodania:
2016-12-26 17:31:23
Rozmiar: 4.71 GB
Ostat. aktualizacja:
2017-01-07 12:48:58
Seedów: 5312
Peerów: 2300


Komentarze: 0

...( Info )...

Produkcja: Japonia, Turcja, USA, Węgry
Gatunek: Thriller
Premiera: 14 października 2016 (Polska), 12 października 2016 (świat)
Reżyseria: Ron Howard
Scenariusz: David Koepp

...( Opis )...

Supertrio: Tom Hanks, Ron Howard i Dan Brown przedstawia ekranizację najlepiej sprzedającej się książki 2013 roku - "Inferno". Światowej sławy profesor w dziedzinie symboliki Robert Langdon (dwukrotny laureat Oscara Tom Hanks) śladami poematu Dantego usiłuje rozwikłać zagadkę symbolu, który znajduje w marynarce, kiedy budzi się - pogrążony w amnezji - w jednym z włoskich szpitali. Będzie to najtrudniejsze zadanie w karierze Langdona, na którego zewsząd czeka niebezpieczeństwo.

...( Obsada )...

★ Tom Hanks .... Robert Langdon
★ Felicity Jones .... Sienna Brooks
★ Omar Sy .... Christoph Bouchard
★ Irrfan Khan .... Harry Sims
★ Sidse Babett Knudsen .... Elizabeth Sinskey
★ Ben Foster .... Bertrand Zobrist
★ Ana Ularu .... Vayentha
★ Ida Darvish .... Marta Alvarez

...( Dane Techniczne )...

Video
ID : 1
Format : AVC
Format/Info : Advanced Video Codec
Format profile : High@L4
Format settings, CABAC : Yes
Format settings, ReFrames : 4 frames
Codec ID : V_MPEG4/ISO/AVC
Duration : 2h 1mn
Bit rate : 5 040 Kbps
Width : 1 916 pixels
Height : 1 036 pixels
Display aspect ratio : 1.85:1
Frame rate mode : Constant
Frame rate : 24.000 fps
Color space : YUV
Chroma subsampling : 4:2:0
Bit depth : 8 bits
Scan type : Progressive
Bits/(Pixel*Frame) : 0.106
Stream size : 4.29 GiB (91%)
Title : Inferno.2016.1080p.WEB-DL.DD5.1.H264-FGT
Language : English
Default : Yes
Forced : No
Color range : Limited
Color primaries : BT.709
Transfer characteristics : BT.709
Matrix coefficients : BT.709

Audio
ID : 2
Format : AC-3
Format/Info : Audio Coding 3
Mode extension : CM (complete main)
Format settings, Endianness : Big
Codec ID : A_AC3
Duration : 2h 1mn
Bit rate mode : Constant
Bit rate : 384 Kbps
Channel(s) : 6 channels
Channel positions : Front: L C R, Side: L R, LFE
Sampling rate : 48.0 KHz
Frame rate : 31.250 fps (1536 spf)
Compression mode : Lossy
Stream size : 335 MiB (7%)
Title : Inferno.2016.1080p.WEB-DL.DD5.1.H264-FGT
Language : English
Default : Yes
Forced : No

Text #1
ID : 3
Format : UTF-8
Codec ID : S_TEXT/UTF8
Codec ID/Info : UTF-8 Plain Text
Title : FORCED
Language : English
Default : Yes
Forced : Yes

Text #2
ID : 4
Format : UTF-8
Codec ID : S_TEXT/UTF8
Codec ID/Info : UTF-8 Plain Text
Language : English
Default : No
Forced : No

Menu
00:00:00.000 : en:1
00:04:12.544 : en:2
00:12:32.085 : en:3
00:23:42.004 : en:4
00:36:02.160 : en:5
00:51:10.651 : en:6
00:59:15.594 : en:7
01:01:41.906 : en:8
01:07:41.515 : en:9
01:13:24.232 : en:10
01:20:01.254 : en:11
01:24:36.362 : en:12
01:31:24.269 : en:13
01:35:41.109 : en:14
01:40:50.126 : en:15
01:52:26.906 : en:16

Lista plików Show/Hide [Pokaż/Ukryj]
Trackery
  • udp://9.rarbg.to:2710/announce
  • udp://9.rarbg.me:2710/announce
  • http://tracker.trackerfix.com:80/announce

Brak komentarzy!

Żaden z plików nie znajduje się na serwerze. Torrenty są własnością użytkowników. Administrator serwisu nie może ponieść konsekwencji za to co użytkownicy wstawiają, lub za to co czynią na stronie. Nie możesz używać tego serwisu do rozpowszechniania lub ściągania materiałów do których nie masz odpowiednich praw lub licencji. Użytkownicy odpowiedzialni są za przestrzeganie tych zasad.
Copyright © 2016 torrentyorg.pl

Najlepsze strony Torrentowe