TS/CAM / Sci-Fi
Passengers (2016) x264 AAC 2.0 HDCAM [ENG] [MKV]


Dodał: Uploader
Data dodania:
2016-12-29 00:13:30
Rozmiar: 1.38 GB
Ostat. aktualizacja:
2017-01-05 01:05:34
Seedów: 20255
Peerów: 9460


Komentarze: 0

...( Info )...

Produkcja: USA
Gatunek: Przygodowy, Sci-Fi
Premiera: 25 grudnia 2016 (Polska), 21 grudnia 2016 (świat)
Reżyseria: Morten Tyldum
Scenariusz: Jon Spaihts

...( Opis )...

Podczas międzyplanetarnej podróży kosmicznej do nowego domu, na nową planetę, dwoje pasażerów – wskutek niezrozumiałych, tajemniczych okoliczności – budzi się ze snu dziewięćdziesiąt lat za wcześnie. Jim (Chris Pratt) i Aurora (Jennifer Lawrence) zakochują się w sobie, wiedzą, że spędzą na pokładzie resztę życia. Szybko odkrywają, że statek kosmiczny znajduje się w śmiertelnym niebezpieczeństwie, a życie pasażerów zależy tylko od nich... Powoli dowiadują się także, dlaczego ich wybudzenie nie było przypadkowe.

...( Obsada )...

★ Jennifer Lawrence .... Aurora Lane
★ Chris Pratt .... Jim Preston
★ Michael Sheen .... Arthur
★ Laurence Fishburne .... Gus Mancuso
★ Andy Garcia .... Kapitan Norris
★ Vince Foster .... Zastępca dowódcy
★ Kara Flowers .... Oficer łączności
★ Conor Brophy .... Członek załogi

...( Dane Techniczne )...

Format : Matroska
File size : 1.37 GiB
Duration : 1 h 47 min
Overall bit rate : 1 817 kb/s

Video
Format : AVC
Format/Info : Advanced Video Codec
Format profile : High@L4.1
Format settings, CABAC : Yes
Format settings, ReFrames : 16 frames
Codec ID : V_MPEG4/ISO/AVC
Duration : 1 h 47 min
Bit rate : 1 687 kb/s
Width : 720 pixels
Height : 308 pixels
Display aspect ratio : 2.35:1
Frame rate mode : Constant
Frame rate : 24.975 (25000/1001) FPS
Color space : YUV
Chroma subsampling : 4:2:0
Bit depth : 8 bits
Scan type : Progressive
Bits/(Pixel*Frame) : 0.305
Stream size : 1.27 GiB (93%)
Language : English
Default : Yes
Forced : No
Color range : Limited
Color primaries : BT.601 NTSC
Transfer characteristics : BT.470 System B, BT.470 System G
Matrix coefficients : BT.601


Audio #1
Format : AAC
Format/Info : Advanced Audio Codec
Format profile : LC
Codec ID : A_AAC
Duration : 1 h 47 min
Bit rate : 128 kb/s
Channel(s) : 2 channels
Channel positions : Front: L R
Sampling rate : 48.0 kHz
Frame rate : 46.875 FPS (1024 spf)
Compression mode : Lossy
Delay relative to video : 9 ms
Stream size : 98.5 MiB (7%)
Language : English
Default : Yes
Forced : No

Lista plików Show/Hide [Pokaż/Ukryj]
Trackery
  • udp://tracker.ilibr.org:80/announce
  • udp://tracker.ilibr.org:6969/announce
  • udp://tracker.coppersurfer.tk:6969/announce
  • udp://eddie4.nl:6969/announce
  • udp://tracker.leechers-paradise.org:6969/announce
  • udp://tracker.opentrackr.org:1337/announce
  • udp://tracker.zer0day.to:1337/announce
  • udp://p4p.arenabg.com:1337/announce
  • udp://p4p.arenabg.ch:1337/announce
  • udp://tracker.internetwarriors.net:1337/announce
  • udp://9.rarbg.to:2710/announce
  • udp://9.rarbg.me:2710/announce
  • udp://torrent.gresille.org:80/announce

Brak komentarzy!

walking deadautomapaavikingsWestworldwindowswindows 10wołyń2016Battlefield 1Need For SpeedCall of DutyWołyń 2016Athe walking deadbelferwikingowiesullyinfernowindows 7legion samobójcówprzełęcz ocalonychpaktstar warspitbullAm jak miłość3%dziewczyna z pociąguA
Żaden z plików nie znajduje się na serwerze. Torrenty są własnością użytkowników. Administrator serwisu nie może ponieść konsekwencji za to co użytkownicy wstawiają, lub za to co czynią na stronie. Nie możesz używać tego serwisu do rozpowszechniania lub ściągania materiałów do których nie masz odpowiednich praw lub licencji. Użytkownicy odpowiedzialni są za przestrzeganie tych zasad.
Copyright © 2016 torrentyorg.pl

Najlepsze strony Torrentowe