TS/CAM / Animowany
Sing 2016/17 [CAM XviD AC3] [ENG] [AvI]


Dodał: Uploader
Data dodania:
2016-12-31 00:57:23
Rozmiar: 1.43 GB
Ostat. aktualizacja:
2016-12-31 00:58:07
Seedów: 15503
Peerów: 22542


Komentarze: 0

...( Info )...

Produkcja: Japonia, USA
Gatunek: Animacja, Komedia, Musical
Premiera: 6 stycznia 2017 (Polska), 11 września 2016 (świat)
Reżyseria: Garth Jennings
Scenariusz: Garth Jennings

...( Opis )...

W świecie zamieszkanym przez zwierzęta teatr prowadzony przez koalę Bustera Moona (Matthew McConaughey) popada w tarapaty. Kochając teatr, zrobi on jednak wszystko, by go ocalić. Ostatnią szansą na przetrwanie jest wielki konkurs, który pomoże odnaleźć najpiękniejszy głos świata. Głos, który ocali teatr.  Do konkursu staną: nucąca cicho jak mysz pod miotłą Mysz (Seth MacFarlane), nieśmiała Słonica (Tori Kelly), której towarzyszy pewna siebie matka (Reese Witherspoon), młody gangster Gorilla i punkowa rebeliantka Jeżozwierzyca (Scarlett Johansson).

...( Obsada )...

★ Matthew McConaughey .... Buster Moon (głos)
★ Reese Witherspoon .... Rosita (głos)
★ Seth MacFarlane .... Mike (głos)
★ Scarlett Johansson .... Ash (głos)
★ John C. Reilly .... Eddie (głos)
★ Taron Egerton .... Johnny (głos)
★ Tori Kelly .... Nana (głos)

...( Dane Techniczne )...

Format : AVI
Format/Info : Audio Video Interleave
File size : 1.42 GiB
Duration : 1 h 41 min
Overall bit rate : 2 001 kb/s
Writing library : VirtualDub build 30091/release

Video
ID : 0
Format : MPEG-4 Visual
Format profile : Advanced Simple@L5
Format settings, BVOP : 2
Format settings, QPel : No
Format settings, GMC : No warppoints
Format settings, Matrix : Default (H.263)
Muxing mode : Packed bitstream
Codec ID : XVID
Codec ID/Hint : XviD
Duration : 1 h 41 min
Bit rate : 1 800 kb/s
Width : 720 pixels
Height : 384 pixels
Display aspect ratio : 1.85:1
Frame rate : 25.000 FPS
Color space : YUV
Chroma subsampling : 4:2:0
Bit depth : 8 bits
Scan type : Progressive
Compression mode : Lossy
Bits/(Pixel*Frame) : 0.260
Stream size : 1.28 GiB (90%)
Writing library : XviD 67

Audio
ID : 1
Format : AC-3
Format/Info : Audio Coding 3
Mode extension : CM (complete main)
Format settings, Endianness : Big
Codec ID : 2000
Duration : 1 h 41 min
Bit rate mode : Constant
Bit rate : 192 kb/s
Sampling rate : 48.0 kHz
Frame rate : 31.250 FPS (1536 spf)
Compression mode : Lossy
Stream size : 139 MiB (10%)
Alignment : Aligned on interleaves
Interleave, duration : 40 ms (1.00 video frame)
Interleave, preload duration : 512 ms

Lista plików Show/Hide [Pokaż/Ukryj]
Trackery
  • udp://tracker.coppersurfer.tk:6969/announce
  • udp://tracker.coppersurfer.tk:6969
  • udp://tracker.ilibr.org:80/announce
  • udp://tracker.ilibr.org:6969/announce
  • udp://tracker.opentrackr.org:1337/announce
  • udp://tracker.zer0day.to:1337/announce
  • udp://shadowshq.yi.org:6969/announce
  • udp://tracker.leechers-paradise.org:6969/announce
  • udp://eddie4.nl:6969/announce
  • udp://p4p.arenabg.com:1337/announce
  • udp://p4p.arenabg.ch:1337/announce
  • udp://ipv4.tracker.harry.lu:80/announce
  • udp://explodie.org:6969/announce
  • udp://9.rarbg.me:2710/announce
  • udp://9.rarbg.to:2710/announce

Brak komentarzy!

przełęcz ocalonychpitbullCall of DutyautomapawindowsWestworldANeed For Speedm jak miłośćwalking deadA2016wikingowiethe walking deaddziewczyna z pociągustar warswołyń3%belferpaktAinfernowindows 7Battlefield 1sullywindows 10Wołyń 2016vikingslegion samobójcówa
Żaden z plików nie znajduje się na serwerze. Torrenty są własnością użytkowników. Administrator serwisu nie może ponieść konsekwencji za to co użytkownicy wstawiają, lub za to co czynią na stronie. Nie możesz używać tego serwisu do rozpowszechniania lub ściągania materiałów do których nie masz odpowiednich praw lub licencji. Użytkownicy odpowiedzialni są za przestrzeganie tych zasad.
Copyright © 2016 torrentyorg.pl

Najlepsze strony Torrentowe