3D / Fantasy
Osobliwy dom Pani Peregrine 3D - Miss Peregrine’s Home For Peculiar Children *2016* [mini-HD.1080p.3D.Half.Over-Under.Dual.Audio.AC3.BluRay.x264-SONDA] [Dubbing i Napisy PL] [ENG]


Dodał: sonda
Data dodania:
2016-12-31 11:05:17
Rozmiar: 3.95 GB
Ostat. aktualizacja:
2017-01-10 18:25:20
Seedów: 198
Peerów: 71


Komentarze: 0

http://i.imgur.com/lDac5HY.jpg

Film w wersji 3D Half Over-Under.
Do odtworzenia filmu WYMAGANY odpowiedni sprzęt (TV 3D)
===========================================

Kopia mini-HD 1080p = 3,94 GB

gatunek: Fantasy,Przygodowy
produkcja: Belgia,USA,Wielka Brytania
premiera: 7 października 2016 (Polska) 29 sierpnia 2016 (świat)
reżyseria: Tim Burton
scenariusz: Jane Goldman

http://www.imdb.com/title/tt1935859/

Obsada:

Karol Osentowski ... Jacob Portman (polski dubbing)
Ewa Jakubowicz ... Emma Bloom (polski dubbing)
Izabela Kuna ... Alma LeFay Peregrine (polski dubbing)
Marek Bukowski ... Franklin Portman (polski dubbing)
Krzysztof Stelmaszyk ... Barron (polski dubbing)
Maciej Falana ... Enoch O’Connor (polski dubbing)
Włodzimierz Press ... Abraham Portman (polski dubbing)

Opis:

Podążając za wskazówkami, które zostawił mu ukochany dziadek, Jake odkrywa, że istnieje niezwykły świat poza czasem i przestrzenią, a w nim niezwykłe miejsce, zwane "Osobliwym domem pani Peregrine". Jake poznaje niesamowite moce mieszkańców domu i dowiaduje się, że mają oni potężnych wrogów. Wkrótce przekona się, że jeśli chce ocalić swych nowych przyjaciół, musi nauczyć się korzystać z "osobliwości", którą sam został obdarzony.

Storyline:

When Jacob discovers clues to a mystery that spans different worlds and times, he finds a magical place known as Miss Peregrine's Home for Peculiar Children. But the mystery and danger deepen as he gets to know the residents and learns about their special powers... and their powerful enemies. Ultimately, Jacob discovers that only his own special "peculiarity" can save his new friends.

Screenshot:

http://i.imgur.com/aNf61MG.jpg
http://i.imgur.com/63B1JPI.jpg
http://i.imgur.com/h070Pmg.jpg
http://i.imgur.com/SUWiEIQ.jpg


Dane techniczne:

General
Format : Matroska
Format version : Version 2
File size : 3.95 GiB
Duration : 2h 6mn
Overall bit rate : 4 455 Kbps
Movie name : Miss.Peregrines.Home.For.Peculiar.Children.3D.2016.PL.HOU.BDRip.1080p.Sonda
Encoded date : UTC 2016-12-30 16:49:26
Writing application : mkvmerge v5.7.0 ('The Whirlwind') built on Jul 8 2012 20:08:51
Writing library : libebml v1.2.3 + libmatroska v1.3.0

Video
ID : 1
Format : AVC
Format/Info : Advanced Video Codec
Format profile : High@L4.1
Format settings, CABAC : Yes
Format settings, ReFrames : 4 frames
Codec ID : V_MPEG4/ISO/AVC
Duration : 2h 6mn
Bit rate : 3 600 Kbps
Width : 1 920 pixels
Height : 1 080 pixels
Display aspect ratio : 16:9 (1.85:1)
Frame rate mode : Constant
Frame rate : 23.976 fps
Color space : YUV
Chroma subsampling : 4:2:0
Bit depth : 8 bits
Scan type : Progressive
Bits/(Pixel*Frame) : 0.072
Stream size : 3.13 GiB (79%)
Title : Rip by Sonda
Writing library : x264
Encoding settings : cabac=1 / ref=4 / deblock=1:-1:-1 / rc=2pass
Default : Yes
Forced : No

Audio #1
ID : 2
Format : AC-3
Format/Info : Audio Coding 3
Mode extension : CM (complete main)
Format settings, Endianness : Big
Codec ID : A_AC3
Duration : 2h 6mn
Bit rate mode : Constant
Bit rate : 448 Kbps
Channel count : 6 channels
Channel positions : Front: L C R, Side: L R, LFE
Sampling rate : 48.0 KHz
Bit depth : 16 bits
Compression mode : Lossy
Stream size : 407 MiB (10%)
Title : AC3 5.1 Dubbing PL
Language : Polish
Default : Yes
Forced : Yes

Audio #2
ID : 3
Format : AC-3
Format/Info : Audio Coding 3
Mode extension : CM (complete main)
Format settings, Endianness : Big
Codec ID : A_AC3
Duration : 2h 6mn
Bit rate mode : Constant
Bit rate : 384 Kbps
Channel count : 6 channels
Channel positions : Front: L C R, Side: L R, LFE
Sampling rate : 48.0 KHz
Bit depth : 16 bits
Compression mode : Lossy
Stream size : 349 MiB (9%)
Title : AC3 5.1 ENG
Language : English
Default : No
Forced : No

Text #1
ID : 4
Format : UTF-8
Codec ID : S_TEXT/UTF8
Codec ID/Info : UTF-8 Plain Text
Title : napisy PL 2D.srt
Language : Polish
Default : No
Forced : No

Text #2
ID : 5
Format : UTF-8
Codec ID : S_TEXT/UTF8
Codec ID/Info : UTF-8 Plain Text
Title : napisy ENG 2D.srt
Language : English
Default : No
Forced : No

Text #3
ID : 6
Format : PGS
Muxing mode : zlib
Codec ID : S_HDMV/PGS
Codec ID/Info : The same subtitle format used on BDs/HD-DVDs
Title : napisy PL 3D.sup
Language : Polish
Default : No
Forced : No

Text #4
ID : 7
Format : PGS
Muxing mode : zlib
Codec ID : S_HDMV/PGS
Codec ID/Info : The same subtitle format used on BDs/HD-DVDs
Title : napisy ENG 3D.sup
Language : English
Default : No
Forced : No

Source:
A/V- Miss Peregrine's Home for Peculiar Children (2016) Blu-ray 3D EUR 1080p AVC DTS 5.1- HDCLUB
Dubbing PL - BD
Thanks - Sonda

Życzę wszystkim Szczęśliwego Nowego Roku i szampańskiej zabawy :)

Sonda
====================================================

Lista plików Show/Hide [Pokaż/Ukryj]
Trackery
  • udp://tracker.leechers-paradise.org:6969/announce
  • http://agusiq-torrents.pl:6969/announce
  • udp://shadowshq.eddie4.nl:6969/announce
  • udp://tracker.coppersurfer.tk:6969/announce
  • udp://9.rarbg.com:2710/announce
  • http://mgtracker.org:2710/announce
  • http://tracker.tfile.me:80/announce
  • http://retracker.krs-ix.ru:80/announce
  • http://retracker.krs-ix.ru/announce
  • http://tracker.tfile.me/announce

Brak komentarzy!

2016wikingowiestar warsm jak miłośćsullypaktbelferlegion samobójcówwołyńaAA3%Battlefield 1automapadziewczyna z pociąguthe walking deadpitbullinfernoAwindows 7windows 10Call of DutyNeed For Speedwindowsprzełęcz ocalonychWestworldwalking deadWołyń 2016vikings
Żaden z plików nie znajduje się na serwerze. Torrenty są własnością użytkowników. Administrator serwisu nie może ponieść konsekwencji za to co użytkownicy wstawiają, lub za to co czynią na stronie. Nie możesz używać tego serwisu do rozpowszechniania lub ściągania materiałów do których nie masz odpowiednich praw lub licencji. Użytkownicy odpowiedzialni są za przestrzeganie tych zasad.
Copyright © 2016 torrentyorg.pl

Najlepsze strony Torrentowe