HD / Dramat
50 ocalonych-Fifty Dead Men Walking (2008)[BDRip 1080p by alE13 DTS/AC3[Lektor i Napisy PL/Eng][Eng]


Dodał: alE13
Data dodania:
2017-01-05 09:18:09
Rozmiar: 7.35 GB
Ostat. aktualizacja:
2017-01-07 08:39:53
Seedów: 33
Peerów: 46


Komentarze: 0

http://i.imgur.com/QX9RxkJ.jpg

http://www.filmweb.pl/film/50+ocalonych-2008-476282
http://www.imdb.com/title/tt1097643/

Plik zawiera Sample.

reżyseria: Kari Skogland
scenariusz: Kari Skogland
gatunek: Dramat,Polityczny
produkcja: Kanada,Wielka Brytania
premiera: 10-09-2008
muzyka: Ben Mink
zdjęcia: Jonathan Freeman
czas: 2h 0mn

opis:

Based on Martin McGartland's shocking real life story. Martin is a young lad from west Belfast
in the late 1980s who is recruited by the British Police to spy on the IRA. He works his way up
the ranks as a volunteer for the IRA whilst feeding information to his British handler and saving
lives in the process.

Oparta na faktach opowieść osadzona w realiach Irlandii lat 80. 19-letni Marty McGartland
nawiązuje współpracę z brytyjskim rządem i, nie rozumiejąc do końca konsekwencji swoich
działań, zostaje jego agentem. Wkrótce uświadamia sobie, że to wcale nie względy polityczne,
ale możliwość ocalenia życia innym ludziom jest motorem jego działania. Gdy pewnego dnia rząd
wysyła go na najniebezpieczniejszą w jego karierze misję i zostaje zdemaskowany przez IRA,
jego życiu zaczyna grozić śmiertelne niebezpieczeństwo. Aby chronić siebie i swoją dopiero co
założoną rodzinę, Marty musi uciekać.

http://i.imgur.com/V4UdDTp.jpg
http://i.imgur.com/dzSLPIw.jpg
http://i.imgur.com/B9LFaIA.jpg
http://i.imgur.com/b7z3z7H.jpg

obsada:

Ben Kingsley, Jim Sturgess, Kevin Zegers

dane techniczne:

Fifty Dead Men Walking (2008)-alE13.mkv
Format : Matroska
Format version : Version 4 / Version 2
File size : 7.29 GiB
Duration : 2 h 0 min
Overall bit rate : 8 661 kb/s
Movie name : Fifty Dead Men Walking (2008)-alE13
Encoded date : UTC 2017-01-04 20:35:30
Writing application : mkvmerge v8.1.0 ('Psychedelic Postcard') 64bit
Writing library : libebml v1.3.1 + libmatroska v1.4.2
Cover : Yes
Attachments : cover.jpg

Video
ID : 1
Format : AVC
Format/Info : Advanced Video Codec
Format profile : High@L4.1
Format settings, CABAC : Yes
Format settings, ReFrames : 2 frames
Codec ID : V_MPEG4/ISO/AVC
Duration : 1 h 57 min
Bit rate : 7 369 kb/s
Width : 1 920 pixels
Height : 820 pixels
Display aspect ratio : 2.35:1
Frame rate mode : Constant
Frame rate : 24.000 FPS
Color space : YUV
Chroma subsampling : 4:2:0
Bit depth : 8 bits
Scan type : Progressive
Bits/(Pixel*Frame) : 0.195
Stream size : 5.80 GiB (80%)
Title : Fifty Dead Men Walking (2008)-alE13
Writing library : x264 core 142
Default : Yes
Forced : No
Color range : Limited
Color primaries : BT.709
Transfer characteristics : BT.709
Matrix coefficients : BT.709

Audio #1
ID : 2
Format : AC-3
Format/Info : Audio Coding 3
Mode extension : CM (complete main)
Format settings, Endianness : Big
Codec ID : A_AC3
Duration : 1 h 57 min
Bit rate mode : Constant
Bit rate : 640 kb/s
Channel(s) : 6 channels
Channel positions : Front: L C R, Side: L R, LFE
Sampling rate : 48.0 kHz
Frame rate : 31.250 FPS (1536 spf)
Bit depth : 16 bits
Compression mode : Lossy
Stream size : 537 MiB (7%)
Title : Fifty Dead Men Walking (2008)-alE13
Language : English
Default : No
Forced : No

Audio #2
ID : 3
Format : DTS
Format/Info : Digital Theater Systems
Mode : 16
Format settings, Endianness : Big
Codec ID : A_DTS
Duration : 2 h 0 min
Bit rate mode : Constant
Bit rate : 768 kb/s
Channel(s) : 6 channels
Channel positions : Front: L C R, Side: L R, LFE
Sampling rate : 48.0 kHz
Frame rate : 93.750 FPS (512 spf)
Bit depth : 16 bits
Compression mode : Lossy
Stream size : 662 MiB (9%)
Title : Fifty Dead Men Walking (2008)-alE13
Language : English
Default : No
Forced : No

Audio #3
ID : 4
Format : AC-3
Format/Info : Audio Coding 3
Mode extension : CM (complete main)
Format settings, Endianness : Big
Codec ID : A_AC3
Duration : 1 h 57 min
Bit rate mode : Constant
Bit rate : 384 kb/s
Channel(s) : 6 channels
Channel positions : Front: L C R, Side: L R, LFE
Sampling rate : 48.0 kHz
Frame rate : 31.250 FPS (1536 spf)
Bit depth : 16 bits
Compression mode : Lossy
Delay relative to video : 20 ms
Stream size : 323 MiB (4%)
Title : Fifty Dead Men Walking (2008)-alE13
Language : Polish
Default : Yes
Forced : No

Text #1
ID : 5
Format : UTF-8
Codec ID : S_TEXT/UTF8
Codec ID/Info : UTF-8 Plain Text
Duration : 1 h 50 min
Bit rate : 57 b/s
Count of elements : 1400
Stream size : 46.9 KiB (0%)
Title : Fifty Dead Men Walking (2008)-alE13
Language : Polish
Default : Yes
Forced : No

Text #2
ID : 6
Format : UTF-8
Codec ID : S_TEXT/UTF8
Codec ID/Info : UTF-8 Plain Text
Duration : 1 h 47 min
Bit rate : 69 b/s
Count of elements : 1390
Stream size : 54.9 KiB (0%)
Title : Fifty Dead Men Walking (2008)-alE13
Language : English
Default : No
Forced : No

Lista plików Show/Hide [Pokaż/Ukryj]
Trackery
  • http://tracker.torrentyorg.pl/announce
  • udp://tracker.coppersurfer.tk:6969/announce
  • udp://tracker.leechers-paradise.org:6969/announce
  • http://mgtracker.org:2710/announce
  • http://auratorrent.pl:8089/announce
  • http://pow7.com:80/announce
  • http://pow7.com/announce
  • http://tracker.tfile.me/announce
  • udp://inferno.demonoid.pw:3393/announce
  • udp://inferno.demonoid.ooo:3392/announce
  • http://retracker.omsk.ru:2710/announce

Brak komentarzy!

Żaden z plików nie znajduje się na serwerze. Torrenty są własnością użytkowników. Administrator serwisu nie może ponieść konsekwencji za to co użytkownicy wstawiają, lub za to co czynią na stronie. Nie możesz używać tego serwisu do rozpowszechniania lub ściągania materiałów do których nie masz odpowiednich praw lub licencji. Użytkownicy odpowiedzialni są za przestrzeganie tych zasad.
Copyright © 2016 torrentyorg.pl

Najlepsze strony Torrentowe