TS/CAM / Kryminalny
Jack Reacher Never Go Back *2016* [1080p.HDRip.x264.AAC2.0-STUTTERSHIT] [KORSUB]


Dodał: Uploader
Data dodania:
2017-01-05 16:25:41
Rozmiar: 3.89 GB
Ostat. aktualizacja:
2017-01-16 10:09:24
Seedów: 3040
Peerów: 654


Komentarze: 0

...( Info )...

Produkcja: USA
Gatunek: Kryminał, Akcja
Premiera: 21 października 2016 (Polska), 19 października 2016 (świat)
Reżyseria: Edward Zwick
Scenariusz: Marshall Herskovitz, Richard Wenk, Edward Zwick

...( Opis )...

Gdy major Susan Turner (Cobie Smulders), kierująca jednostką dochodzeniową, w której przed laty pracował Jack Reacher (Tom Cruise), zostaje aresztowana za zdradę, Jack nie cofnie się przed niczym, by udowodnić jej niewinność, a przy okazji odkryć potężny spisek rządowy z udziałem armii.

...( Obsada )...

★ Tom Cruise .... Jack Reacher
★ Cobie Smulders .... Turner
★ Aldis Hodge .... Espin
★ Danika Yarosh .... Samantha
★ Patrick Heusinger .... Łowca
★ Holt McCallany .... Pułkownik Morgan
★ Austin Hébert .... Prudhomme
★ Jessica Stroup .... Porucznik Sullivan

...( Dane Techniczne )...

Video
ID : 1
Format : AVC
Format/Info : Advanced Video Codec
Format profile : High@L4.1
Format settings, CABAC : Yes
Format settings, ReFrames : 4 frames
Codec ID : avc1
Codec ID/Info : Advanced Video Coding
Duration : 1h 58mn
Bit rate : 4 500 Kbps
Width : 1 920 pixels
Height : 804 pixels
Display aspect ratio : 2.40:1
Frame rate mode : Constant
Frame rate : 29.970 (30000/1001) fps
Color space : YUV
Chroma subsampling : 4:2:0
Bit depth : 8 bits
Scan type : Progressive
Bits/(Pixel*Frame) : 0.097
Stream size : 3.70 GiB (95%)
Title : Jack.Reacher.Never.Go.Back.2016.1080p.KORSUB.HDRip.x264.AAC2.0-STUTTERSHIT
Writing library : x264 core 148 r2597M e86f3a1
Encoding settings : cabac=1 / ref=4 / deblock=1:0:0 / analyse=0x3:0x113 / me=umh / subme=8 / psy=1 / psy_rd=1.00:0.00 / mixed_ref=1 / me_range=16 / chroma_me=1 / trellis=1 / 8x8dct=1 / cqm=0 / deadzone=21,11 / fast_pskip=1 / chroma_qp_offset=-2 / threads=40 / lookahead_threads=6 / sliced_threads=0 / nr=0 / decimate=1 / interlaced=0 / bluray_compat=0 / constrained_intra=0 / bframes=3 / b_pyramid=2 / b_adapt=2 / b_bias=0 / direct=3 / weightb=1 / open_gop=0 / weightp=2 / keyint=250 / keyint_min=25 / scenecut=40 / intra_refresh=0 / rc_lookahead=50 / rc=abr / mbtree=1 / bitrate=4500 / ratetol=1.0 / qcomp=0.60 / qpmin=0 / qpmax=69 / qpstep=4 / ip_ratio=1.40 / aq=1:1.00

Audio
ID : 2
Format : AAC
Format/Info : Advanced Audio Codec
Format profile : LC
Codec ID : 40
Duration : 1h 58mn
Bit rate mode : Constant
Bit rate : 224 Kbps
Channel(s) : 2 channels
Channel positions : Front: L R
Sampling rate : 48.0 KHz
Frame rate : 46.875 fps (1024 spf)
Compression mode : Lossy
Stream size : 189 MiB (5%)
Title : Jack.Reacher.Never.Go.Back.2016.1080p.KORSUB.HDRip.x264.AAC2.0-STUTTERSHIT
Default : Yes
Alternate group : 1

Lista plików Show/Hide [Pokaż/Ukryj]
Trackery
  • http://tracker.trackerfix.com:80/announce
  • udp://9.rarbg.to:2710/announce
  • udp://9.rarbg.me:2710/announce

Brak komentarzy!

2016dziewczyna z pociąguBattlefield 1windows 10m jak miłośćinfernoCall of Dutywalking deadNeed For SpeedpaktbelferautomapaWestworldthe walking deadstar warsAlegion samobójcówawołyńWołyń 2016windows 7AwindowsAprzełęcz ocalonychpitbull3%sullyvikingswikingowie
Żaden z plików nie znajduje się na serwerze. Torrenty są własnością użytkowników. Administrator serwisu nie może ponieść konsekwencji za to co użytkownicy wstawiają, lub za to co czynią na stronie. Nie możesz używać tego serwisu do rozpowszechniania lub ściągania materiałów do których nie masz odpowiednich praw lub licencji. Użytkownicy odpowiedzialni są za przestrzeganie tych zasad.
Copyright © 2016 torrentyorg.pl

Najlepsze strony Torrentowe