TS/CAM / Dramat
Fences *2016* [DVDSCR.XviD.AC3-UnKnOwN] [ENG]


Dodał: Uploader
Data dodania:
2017-01-05 16:25:52
Rozmiar: 2.09 GB
Ostat. aktualizacja:
2017-01-05 16:27:30
Seedów: 6191
Peerów: 1745


Komentarze: 0

...( Info )...

Tytuł............................................: Fences
Ocena.............................................: IMDB - 8/10 (3207), Filmweb - 7.8/10 (4)
Produkcja.........................................: USA
Gatunek...........................................: Dramat
Czas trwania......................................: 138 min.
Premiera..........................................: 25.12.2016 - Świat
Reżyseria........................................: Denzel Washington
Scenariusz........................................: August Wilson

...( Opis )...

Czarnoskóry ojciec zmaga się z problemami rasowymi w Stanach Zjednoczonych w latach 50. i próbuje w tych trudnych warunkach utrzymać rodzinę, a także pogodzić się z wydarzeniami ze swojego życia.

...( Obsada )...

★ Denzel Washington .... Troy Maxson
★ Viola Davis .... Rose Maxson
★ Russell Hornsby .... Lyons Maxson
★ Stephen Henderson .... Jim Bono
★ Mykelti Williamson .... Gabriel
★ Saniyya Sidney .... Raynell
★ Jovan Adepo .... Cory

...( Dane Techniczne )...

Video
ID : 0
Format : MPEG-4 Visual
Format profile : Advanced Simple@L4
Format settings, BVOP : 2
Format settings, QPel : No
Format settings, GMC : No warppoints
Format settings, Matrix : Default (H.263)
Codec ID : DIVX
Codec ID/Info : Project Mayo
Codec ID/Hint : DivX 4
Duration : 2h 18mn
Bit rate : 1 697 Kbps
Width : 720 pixels
Height : 304 pixels
Display aspect ratio : 2.35:1
Frame rate : 29.970 (30000/1001) fps
Color space : YUV
Chroma subsampling : 4:2:0
Bit depth : 8 bits
Scan type : Progressive
Compression mode : Lossy
Bits/(Pixel*Frame) : 0.259
Stream size : 1.65 GiB (79%)
Writing library : XviD 64

Audio
ID : 1
Format : AC-3
Format/Info : Audio Coding 3
Mode extension : CM (complete main)
Format settings, Endianness : Big
Codec ID : 2000
Duration : 2h 18mn
Bit rate mode : Constant
Bit rate : 448 Kbps
Channel(s) : 6 channels
Channel positions : Front: L C R, Side: L R, LFE
Sampling rate : 48.0 KHz
Frame rate : 31.250 fps (1536 spf)
Compression mode : Lossy
Stream size : 445 MiB (21%)
Alignment : Aligned on interleaves
Interleave, duration : 32 ms (0.96 video frame)

Lista plików Show/Hide [Pokaż/Ukryj]
Trackery
  • http://tracker.trackerfix.com:80/announce
  • udp://9.rarbg.to:2710/announce
  • udp://9.rarbg.me:2710/announce

Brak komentarzy!

Alegion samobójcówCall of Dutywindows 10windowsNeed For Speeddziewczyna z pociągupitbullwalking deadWołyń 2016vikingsApaktawindows 7Battlefield 1belfer2016wikingowiesullyAinfernoprzełęcz ocalonych3%star warsautomapam jak miłośćthe walking deadWestworldwołyń
Żaden z plików nie znajduje się na serwerze. Torrenty są własnością użytkowników. Administrator serwisu nie może ponieść konsekwencji za to co użytkownicy wstawiają, lub za to co czynią na stronie. Nie możesz używać tego serwisu do rozpowszechniania lub ściągania materiałów do których nie masz odpowiednich praw lub licencji. Użytkownicy odpowiedzialni są za przestrzeganie tych zasad.
Copyright © 2016 torrentyorg.pl

Najlepsze strony Torrentowe