x264 / Komedia
Sick of it All (2017) [WEB-DL.x264-FGT] [ENG]


Dodał: happystefan
Data dodania:
2017-01-05 20:43:25
Rozmiar: 722.08 MB
Ostat. aktualizacja:
2017-01-06 08:39:04
Seedów: 36
Peerów: 8


Komentarze: 0

Tytuł: Sick of it All
Produkcja: USA
Gatunek: Dramat, Komedia
Czas trwania: 86 min.
Premiera: 03.01.2017 - Świat
Reżyseria: Brian McGuire
Scenariusz: Brian McGuire

Aktorzy:
Amy Claire,
Chris Doubek,
Emmet McGuire,
Luke McGuire

OPIS:
Mały Książę w krainie zdziecinniałych dorosłych. (release24.pl)

Video
ID : 1
Format : AVC
Format/Info : Advanced Video Codec
Format profile : High@L3.1
Format settings, CABAC : Yes
Format settings, ReFrames : 5 frames
Codec ID : avc1
Codec ID/Info : Advanced Video Coding
Duration : 1h 20mn
Bit rate : 1 100 Kbps
Width : 720 pixels
Height : 400 pixels
Display aspect ratio : 16:9
Original display aspect ratio : 16:9
Frame rate mode : Constant
Frame rate : 23.976 (23976/1000) fps
Color space : YUV
Chroma subsampling : 4:2:0
Bit depth : 8 bits
Scan type : Progressive
Bits/(Pixel*Frame) : 0.159
Stream size : 644 MiB (89%)
Title : Sick.of.it.All.2017.WEB-DL.x264-FGT
Writing library : x264 core 148 r2597M e86f3a1
Encoding settings : cabac=1 / ref=5 / deblock=1:-2:-2 / analyse=0x3:0x113 / me=umh / subme=8 / psy=1 / psy_rd=0.90:0.00 / mixed_ref=1 / me_range=16 / chroma_me=1 / trellis=1 / 8x8dct=1 / cqm=0 / deadzone=21,11 / fast_pskip=1 / chroma_qp_offset=-2 / threads=40 / lookahead_threads=6 / sliced_threads=0 / nr=0 / decimate=1 / interlaced=0 / bluray_compat=0 / constrained_intra=0 / bframes=3 / b_pyramid=2 / b_adapt=2 / b_bias=0 / direct=3 / weightb=1 / open_gop=0 / weightp=2 / keyint=250 / keyint_min=25 / scenecut=40 / intra_refresh=0 / rc_lookahead=50 / rc=abr / mbtree=1 / bitrate=1100 / ratetol=1.0 / qcomp=0.60 / qpmin=0 / qpmax=69 / qpstep=4 / vbv_maxrate=31250 / vbv_bufsize=31250 / nal_hrd=none / filler=0 / ip_ratio=1.40 / aq=1:1.00
Language : English

Audio
ID : 2
Format : AAC
Format/Info : Advanced Audio Codec
Format profile : LC
Codec ID : 40
Duration : 1h 20mn
Bit rate mode : Variable
Bit rate : 128 Kbps
Maximum bit rate : 31.3 Mbps
Channel(s) : 2 channels
Channel positions : Front: L R
Sampling rate : 48.0 KHz
Frame rate : 46.875 fps (1024 spf)
Compression mode : Lossy
Stream size : 74.1 MiB (10%)
Title : Sick.of.it.All.2017.WEB-DL.x264-FGT
Language : English
Default : Yes
Alternate group : 1

Dodano: 1 dzień temu
Ostatnia aktualizacja:
1 dzień temu
Wstawił:
ghostdivi5ion w torrenty.to
Gatunek: Komedia


Rozmiar: 722.08 MB
Seedów: ??
Peerów: ??
Pobrano: 24
Komentarze: 0

Lista plików Show/Hide [Pokaż/Ukryj]
Trackery
  • http://tracker.trackerfix.com:80/announce
  • udp://9.rarbg.to:2710/announce
  • udp://9.rarbg.me:2710/announce

Brak komentarzy!

belferinfernopitbullAdziewczyna z pociągu3%Need For Speedvikingssullym jak miłośćstar warsWestworldwindowsAprzełęcz ocalonychWołyń 2016walking deadaA2016the walking deadCall of Dutywikingowielegion samobójcówBattlefield 1automapawołyńwindows 7paktwindows 10
Żaden z plików nie znajduje się na serwerze. Torrenty są własnością użytkowników. Administrator serwisu nie może ponieść konsekwencji za to co użytkownicy wstawiają, lub za to co czynią na stronie. Nie możesz używać tego serwisu do rozpowszechniania lub ściągania materiałów do których nie masz odpowiednich praw lub licencji. Użytkownicy odpowiedzialni są za przestrzeganie tych zasad.
Copyright © 2016 torrentyorg.pl

Najlepsze strony Torrentowe