HD / Koncert
David Foster And Friends-Hit Man Returns (2011)[BDRip 1080p by alE13 DTS/AC3/PCM][Eng]


Dodał: alE13
Data dodania:
2017-01-07 21:13:54
Rozmiar: 15.96 GB
Ostat. aktualizacja:
2017-01-09 07:32:38
Seedów: 31
Peerów: 67


Komentarze: 0

http://i.imgur.com/TnYgsCb.jpg

Audio DTS w osobnym pliku.

Plik zawiera Sample.

premiera: 01-03-2011
produkcja: USA
wytwórnia: Warner Music Group Company
reżyseria: David Horn
gatunek: koncert, pop
czas: 2h 22mn

opis:

Hitman Returns was filmed before a sold out crowd last year at the Mandalay Bay in Las Vegas. The lineup of talent,
lead by Foster as maestro of ceremonies, includes performances by Seal, Donna Summer, Martina McBride, Earth, Wind & Fire,
Natalie Cole, Ruben Studdard, All-4-One,'Glee' star Charice, Chaka Khan, Jackie Evancho, Lara Fabian and other artists
whose careers have been touched by Foster, a 15-time Grammy winning producer and songwriter.

David Foster - kanadyjski wokalista i klawiszowiec, najbardziej znany jako jeden z najlepszych
producentów w historii muzyki pop. Ma 14 nagród Grammy a trzy z nich - w nominacji "Najlepszy Producent roku".
Działa również charytatywne wraz ze swą żoną, Lindą Thompson, odznaczony Orderem Kanady. Hit Man Returns,
został nagrany w 2011 roku w Mandalay Bay, Las Vegas. Wraz z nim występuje wiele gwiazd muzyki rozrywkowej.

http://i.imgur.com/ARGcKse.jpg
http://i.imgur.com/eyedLr8.jpg
http://i.imgur.com/0gJ8apL.jpg
http://i.imgur.com/uS1yhkd.jpg

obsada:

Michael Bolton, Charice, Natalie Cole & more

tracklist:

1) David Foster with Brian Boitano and Kristi Yamaguchi - Winter Games
2) Kenny Loggins / Kenny G - Heart To Heart
3) Kenny Loggins - Forever
4) Gary Wright - Dream Weaver
5) Chaka Khan - Trough The Fire
6) All-4-One - I Can Love You Like That
7) All-4-One - I Swear
8) Natalie Cole / Ruben Studdard - When I Fall In Love
9) Natalie Cole - This Will Be
10) Jackie Evancho - Pie Jesu
11) Jackie Evancho - O Mio Bambino Caro
12) The Canadian Tenors - Because We Believe
13) Seal - Secret
14) Michael Bolton - When A Man Loves A Woman
15) Michael Bolton / Seal - It's A Man's Man's Man's World
16) Chaka Khan - I'm Every Woman
17) Earth, Wind & Fire - In The Stone
18) Earth, Wind & Fire - September
19) Earth, Wind & Fire - After The Love Has Gone
20) Lara Fabian - Caruso
21) Orson Bean, Megan Hilty, Kathryn Joosten & Mark Masri - Say You Remember It (from "Betty Boop: The Musical")
22) Ne-Yo - Miss Independent
23) Ne-Yo / Charice / Robert Randolph - Earth Song
24) Martina McBride - Smile
25) Martina McBride - We've Got Tonight
26) Ruben Studdard - Home
27) Charice - To Love You More
28) Charice - All By Myself
29) Lara Fabian / Michael Bolton - The Prayer
30) Donna Summer / Seal - Unbreak My Heart
31) Donna Summer / Seal - Crazy
32) Donna Summer / Seal - On The Radio
33) Donna Summer - Last Dance

dane techniczne:

David Foster And Friends-Hit Man Returns (2011)-alE13.mkv
Format : Matroska
Format version : Version 4 / Version 2
File size : 7.81 GiB
Duration : 2 h 22 min
Overall bit rate : 7 838 kb/s
Movie name : David Foster And Friends-Hit Man Returns (2011)-alE13
Encoded date : UTC 2017-01-07 16:27:29
Writing application : mkvmerge v8.1.0 ('Psychedelic Postcard') 64bit
Writing library : libebml v1.3.1 + libmatroska v1.4.2
Cover : Yes
Attachments : cover.jpg

Video
ID : 1
Format : AVC
Format/Info : Advanced Video Codec
Format profile : High@L4.1
Format settings, CABAC : Yes
Format settings, ReFrames : 2 frames
Codec ID : V_MPEG4/ISO/AVC
Duration : 2 h 22 min
Bit rate : 7 386 kb/s
Width : 1 920 pixels
Height : 1 080 pixels
Display aspect ratio : 16:9
Frame rate mode : Constant
Frame rate : 29.970 (30000/1001) FPS
Color space : YUV
Chroma subsampling : 4:2:0
Bit depth : 8 bits
Scan type : Progressive
Bits/(Pixel*Frame) : 0.119
Stream size : 7.36 GiB (94%)
Title : David Foster And Friends-Hit Man Returns (2011)-alE13
Writing library : x264 core 142
Default : Yes
Forced : No
Color range : Limited
Color primaries : BT.709
Transfer characteristics : BT.709
Matrix coefficients : BT.709

Audio
ID : 2
Format : AC-3
Format/Info : Audio Coding 3
Mode extension : CM (complete main)
Format settings, Endianness : Big
Codec ID : A_AC3
Duration : 2 h 22 min
Bit rate mode : Constant
Bit rate : 448 kb/s
Channel(s) : 6 channels
Channel positions : Front: L C R, Side: L R, LFE
Sampling rate : 48.0 kHz
Frame rate : 31.250 FPS (1536 spf)
Bit depth : 16 bits
Compression mode : Lossy
Stream size : 457 MiB (6%)
Title : David Foster And Friends-Hit Man Returns (2011)-alE13_AC3
Language : English
Default : No
Forced : No

Lista plików Show/Hide [Pokaż/Ukryj]
Trackery
  • http://tracker.torrentyorg.pl/announce
  • udp://tracker.leechers-paradise.org:6969/announce
  • udp://tracker.coppersurfer.tk:6969/announce
  • http://mgtracker.org:2710/announce
  • http://pow7.com:80/announce
  • http://pow7.com/announce
  • http://auratorrent.pl:8089/announce
  • udp://inferno.demonoid.pw:3393/announce
  • udp://inferno.demonoid.ooo:3392/announce
  • http://retracker.omsk.ru:2710/announce
  • http://tracker.tfile.me/announce

Brak komentarzy!

star warsBattlefield 1walking deadsullypitbullWestworldinfernoautomapa3%paktvikingsAlegion samobójcówwikingowieAm jak miłośćbelferAthe walking deadCall of Duty2016dziewczyna z pociąguwindows 10aprzełęcz ocalonychWołyń 2016wołyńwindowswindows 7Need For Speed
Żaden z plików nie znajduje się na serwerze. Torrenty są własnością użytkowników. Administrator serwisu nie może ponieść konsekwencji za to co użytkownicy wstawiają, lub za to co czynią na stronie. Nie możesz używać tego serwisu do rozpowszechniania lub ściągania materiałów do których nie masz odpowiednich praw lub licencji. Użytkownicy odpowiedzialni są za przestrzeganie tych zasad.
Copyright © 2016 torrentyorg.pl

Najlepsze strony Torrentowe