HD / Koncert
Eagles-Live at the Capital Centre, March 1977( 2013)[BDRip 1080p by alE13 PCM/DTS/AC3][Eng]


Dodał: alE13
Data dodania:
2017-01-08 14:45:51
Rozmiar: 9.05 GB
Ostat. aktualizacja:
2017-01-09 07:32:32
Seedów: 96
Peerów: 130


Komentarze: 0

http://i.imgur.com/cD6DEGY.jpg

Audio DTS w osobnym pliku.

produkcja: USA
data: 2013
gatunek: koncert, rock
wytwórnia: Capitol Records
reżyseria: Alison Ellwood
producent: Alex Gibney
czas: 45mn 26s

opis:

Capitol Records has acquired the rights to release the recent acclaimed documentary, History of the Eagles,
for release on DVD and Blu-Ray. Both sets will be out on April 30.

The three-disc sets will include The History of the Eagles, Part 1, The History of the Eagles, Part 2 and
Eagles Live at the Capital Centre - March 1977 with never before seen footage from the two night Washington,
D.C. stand on their Hotel California tour.

Bonusowy Blu-ray Deluxe Edition o historii Eagles z niepublikowanym wcześniej koncertem w Largo, MD, Capital Centre
21-22 marca 1977 z legendarnego turnee Hotel California. Eagles - amerykański zespół rockowy, grający melodyjnego
rocka o miękkim brzmieniu gitar. W ciągu dziesięciu lat istnienia (1971-81) pięciokrotnie prowadził w USA w singlach
(Billboard Hot 100) i cztery razy z albumami (Billboard Top 200).

http://i.imgur.com/TWjMWD0.jpg
http://i.imgur.com/hRZEzQ0.jpg
http://i.imgur.com/RrhZFt4.jpg
http://i.imgur.com/9OyJCCb.jpg

tracklist:

1. Hotel California
2. New Kid In Town
3. Take It To The Limit
4. One Of These Nights
5. Lyin' Eyes
6. Rocky Mountain Way
7. Best Of My Love
8. Take It Easy

dane techniczne:

Eagles-Live at the Capital Centre, March 1977 (2013)-alE13.mkv
Format : Matroska
Format version : Version 4 / Version 2
File size : 7.27 GiB
Duration : 45 min 26 s
Overall bit rate : 22.9 Mb/s
Movie name : Eagles-Live at the Capital Centre, March 1977 ( 2013)-alE13
Encoded date : UTC 2017-01-07 22:17:42
Writing application : mkvmerge v8.1.0 ('Psychedelic Postcard') 64bit
Writing library : libebml v1.3.1 + libmatroska v1.4.2
Cover : Yes
Attachments : cover.jpg

Video
ID : 1
Format : AVC
Format/Info : Advanced Video Codec
Format profile : High@L4.1
Format settings, CABAC : Yes
Format settings, ReFrames : 2 frames
Codec ID : V_MPEG4/ISO/AVC
Duration : 45 min 26 s
Bit rate : 19.9 Mb/s
Width : 1 920 pixels
Height : 1 080 pixels
Display aspect ratio : 16:9
Frame rate mode : Constant
Frame rate : 29.970 (30000/1001) FPS
Color space : YUV
Chroma subsampling : 4:2:0
Bit depth : 8 bits
Scan type : Progressive
Bits/(Pixel*Frame) : 0.320
Stream size : 6.33 GiB (87%)
Title : Eagles-Live at the Capital Centre, March 1977 ( 2013)-alE13
Writing library : x264 core 142
Default : Yes
Forced : No
Color range : Limited
Color primaries : BT.709
Transfer characteristics : BT.709
Matrix coefficients : BT.709

Audio #1
ID : 2
Format : PCM
Format settings, Endianness : Big
Codec ID : A_PCM/INT/BIG
Duration : 45 min 26 s
Bit rate mode : Constant
Bit rate : 2 304 kb/s
Channel(s) : 2 channels
Sampling rate : 48.0 kHz
Frame rate : 200.000 FPS (240 spf)
Bit depth : 24 bits
Stream size : 749 MiB (10%)
Title : Eagles-Live at the Capital Centre, March 1977 ( 2013)-alE13_PCM
Language : English
Default : Yes
Forced : No

Audio #2
ID : 3
Format : AC-3
Format/Info : Audio Coding 3
Mode extension : CM (complete main)
Format settings, Endianness : Big
Codec ID : A_AC3
Duration : 45 min 26 s
Bit rate mode : Constant
Bit rate : 640 kb/s
Channel(s) : 6 channels
Channel positions : Front: L C R, Side: L R, LFE
Sampling rate : 48.0 kHz
Frame rate : 31.250 FPS (1536 spf)
Bit depth : 16 bits
Compression mode : Lossy
Stream size : 208 MiB (3%)
Title : Eagles-Live at the Capital Centre, March 1977 ( 2013)-alE13_AC3
Language : English
Default : No
Forced : No

Lista plików Show/Hide [Pokaż/Ukryj]
Trackery
  • http://tracker.torrentyorg.pl/announce
  • udp://tracker.coppersurfer.tk:6969/announce
  • udp://tracker.leechers-paradise.org:6969/announce
  • http://mgtracker.org:2710/announce
  • http://pow7.com:80/announce
  • http://pow7.com/announce
  • http://auratorrent.pl:8089/announce
  • udp://inferno.demonoid.pw:3393/announce
  • udp://inferno.demonoid.ooo:3392/announce
  • http://retracker.omsk.ru:2710/announce
  • http://tracker.tfile.me/announce

Brak komentarzy!

sullyApitbulldziewczyna z pociąguam jak miłośćvikingswołyńWestworldinfernoBattlefield 1wikingowie2016windows 7Wołyń 2016belferAstar warsAprzełęcz ocalonychwalking deadwindowswindows 10Call of Duty3%automapaNeed For Speedlegion samobójcówthe walking deadpakt
Żaden z plików nie znajduje się na serwerze. Torrenty są własnością użytkowników. Administrator serwisu nie może ponieść konsekwencji za to co użytkownicy wstawiają, lub za to co czynią na stronie. Nie możesz używać tego serwisu do rozpowszechniania lub ściągania materiałów do których nie masz odpowiednich praw lub licencji. Użytkownicy odpowiedzialni są za przestrzeganie tych zasad.
Copyright © 2016 torrentyorg.pl

Najlepsze strony Torrentowe