HD / Koncert
Gipsy Kings Live at Kenwood-House in London (2004)[BDRip 1080p by alE13 DTS/AC3][Spa]


Dodał: alE13
Data dodania:
2017-01-09 08:37:29
Rozmiar: 16.31 GB
Ostat. aktualizacja:
2017-01-10 12:55:12
Seedów: 42
Peerów: 48


Komentarze: 0

http://i.imgur.com/h0SRRX2.jpg

Plik zawiera Sample.

data: 2004
gatunek: folk, flamenco, pop, dokument
produkcja: Hiszpania
wytwórnia: Winner Audio and Video corporation, Magic Play entertainment
producent: Alan Nitzan, Timo Koch
reżyseria: Mike Mansfield
czas: 1h 41mn

opis:

In this dynamic concert video recorded (in high definition) at London's famed Kenwood House
in 2004, the Gipsy Kings -- trailblazers in the flamenco genre -- rev up the crowd with a searing
set list of tunes. Among the selections are "Lleva Me El Compas," "Bolerias," "Volare" "Rumba Tech,
" "Petite Noya," "Baila Me," "Fandangos," "Como Siento Yo" and "Djobi Djoba." Extras include footage
of the group rehearsing.

Liderzy w gatunku FLAMENCO, "Gipsy Kings" od 16 lat zmuszają zmuszają widza o drżenie serca na całym świecie.
Proponuję koncert nagrany w formacie "High-Definition" na scenie legendarnego Kenwood House w Londynie.
W majestatycznej dekoracji wody, przed tysiącami fanów, grupa Gipsy Kings wykonuje swoje największe
hity, takie jak: "Balla Me" czy "Volare", są również na tym koncercie piosenki z albumu "Roots".

http://i.imgur.com/dp6YmDq.jpg
http://i.imgur.com/cBKd4QG.jpg
http://i.imgur.com/P7ZCcg5.jpg
http://i.imgur.com/3PbNeUh.jpg

obsada:

Gipsy Kings

tracklist:

01. Rhythmic
02. Rumba Tech
03. Lleve Me El Compas
04. Tristessa
05. Amigo
06. Petite Noya
07. Como Siento Yo
08. Sabroso
09. Como Ayer
10. A Mi Mora
11. Jobi Joba
12. Boleria
13. Fandangos
14. Legende
15. Quiero Saber
16. Tampa
17. Poquito a Poco
18. Baila Me
19. Todos Todos
20. Bamboleo
21. Volare

dane techniczne:

Gipsy Kings Live at Kenwood-House in London (2004)-alE13.mkv
Format : Matroska
Format version : Version 4 / Version 2
File size : 13.7 GiB
Duration : 1 h 41 min
Overall bit rate : 19.2 Mb/s
Movie name : Gipsy Kings Live at Kenwood-House in London (2004)-alE13
Encoded date : UTC 2017-01-09 07:13:04
Writing application : mkvmerge v8.1.0 ('Psychedelic Postcard') 64bit
Writing library : libebml v1.3.1 + libmatroska v1.4.2
Cover : Yes
Attachments : cover.jpg

Video
ID : 1
Format : AVC
Format/Info : Advanced Video Codec
Format profile : High@L4.1
Format settings, CABAC : Yes
Format settings, ReFrames : 2 frames
Codec ID : V_MPEG4/ISO/AVC
Duration : 1 h 41 min
Bit rate : 15.9 Mb/s
Width : 1 920 pixels
Height : 1 080 pixels
Display aspect ratio : 16:9
Frame rate mode : Constant
Frame rate : 23.976 (23976/1000) FPS
Original frame rate : 23.976 (24000/1001) FPS
Color space : YUV
Chroma subsampling : 4:2:0
Bit depth : 8 bits
Scan type : Progressive
Bits/(Pixel*Frame) : 0.320
Stream size : 11.2 GiB (82%)
Title : Gipsy Kings Live at Kenwood-House in London (2004)-alE13
Writing library : x264 core 142
Default : Yes
Forced : No
Color range : Limited
Color primaries : BT.709
Transfer characteristics : BT.709
Matrix coefficients : BT.709

Audio #1
ID : 2
Format : AC-3
Format/Info : Audio Coding 3
Mode extension : CM (complete main)
Format settings, Endianness : Big
Codec ID : A_AC3
Duration : 1 h 41 min
Bit rate mode : Constant
Bit rate : 448 kb/s
Channel(s) : 6 channels
Channel positions : Front: L C R, Side: L R, LFE
Sampling rate : 48.0 kHz
Frame rate : 31.250 FPS (1536 spf)
Bit depth : 16 bits
Compression mode : Lossy
Stream size : 327 MiB (2%)
Title : Gipsy Kings Live at Kenwood-House in London (2004)-alE13_AC3
Language : Spanish
Default : Yes
Forced : No

Audio #2
ID : 3
Format : DTS
Format/Info : Digital Theater Systems
Format profile : MA / Core
Mode : 16
Format settings, Endianness : Big
Codec ID : A_DTS
Duration : 1 h 41 min
Bit rate mode : Variable / Constant
Bit rate : 2 672 kb/s / 1 509 kb/s
Channel(s) : 6 channels
Channel positions : Front: L C R, Side: L R, LFE
Sampling rate : 48.0 kHz
Frame rate : 93.750 FPS (512 spf)
Bit depth : 16 bits
Compression mode : Lossless / Lossy
Stream size : 1.90 GiB (14%)
Title : Gipsy Kings Live at Kenwood-House in London (2004)-alE13_DTS
Language : Spanish
Default : No
Forced : No

Audio #3
ID : 4
Format : AC-3
Format/Info : Audio Coding 3
Mode extension : CM (complete main)
Format settings, Endianness : Big
Codec ID : A_AC3
Duration : 1 h 41 min
Bit rate mode : Constant
Bit rate : 384 kb/s
Channel(s) : 2 channels
Channel positions : Front: L R
Sampling rate : 48.0 kHz
Frame rate : 31.250 FPS (1536 spf)
Bit depth : 16 bits
Compression mode : Lossy
Stream size : 280 MiB (2%)
Title : Gipsy Kings Live at Kenwood-House in London (2004)-alE13_AC3
Language : Spanish
Default : No
Forced : No

Lista plików Show/Hide [Pokaż/Ukryj]
Trackery
  • http://tracker.torrentyorg.pl/announce
  • udp://tracker.coppersurfer.tk:6969/announce
  • udp://tracker.leechers-paradise.org:6969/announce
  • http://mgtracker.org:2710/announce
  • http://pow7.com:80/announce
  • http://pow7.com/announce
  • http://auratorrent.pl:8089/announce
  • udp://inferno.demonoid.pw:3393/announce
  • udp://inferno.demonoid.ooo:3392/announce
  • http://retracker.omsk.ru:2710/announce
  • http://tracker.tfile.me/announce

Brak komentarzy!

Żaden z plików nie znajduje się na serwerze. Torrenty są własnością użytkowników. Administrator serwisu nie może ponieść konsekwencji za to co użytkownicy wstawiają, lub za to co czynią na stronie. Nie możesz używać tego serwisu do rozpowszechniania lub ściągania materiałów do których nie masz odpowiednich praw lub licencji. Użytkownicy odpowiedzialni są za przestrzeganie tych zasad.
Copyright © 2016 torrentyorg.pl

Najlepsze strony Torrentowe