HD / Fantasy
Harry Potter: The Complete [2001-2011] [[1080p BluRay X264] [MULTIAUDIO] [Lektor PL/Napisy PL]


Dodał: Uploader
Data dodania:
2017-01-09 17:50:31
Rozmiar: 58.73 GB
Ostat. aktualizacja:
2017-01-12 21:06:52
Seedów: 27
Peerów: 649


Komentarze: 0

==================
...::: INFO :::...
==================


Produkcja: USA, Wielka Brytania
Gatunek: Familijny, Fantasy, Przygodowy

==================
...::: OPIS :::...
==================

Harry Potter – seria ośmiu brytyjsko-amerykańskich filmów fantasy powstałych na podstawie cyklu powieści brytyjskiej pisarki J.K. Rowling również zatytułowanej Harry Potter. Filmy stworzono w wytwórni Warner Bros. i wydano w latach 2001–2011. Wszystkie osiem wyprodukował David Heyman, za to reżyserów było w sumie czterech: Chris Columbus, Alfonso Cuarón, Mike Newell i David Yates. W główne role wcieliła się trójka (z początkiem produkcji pierwszego filmu) nastolatków: Daniel Radcliffe, Rupert Grint i Emma Watson. Zagrali oni Harry'ego Pottera oraz jego dwóch przyjaciół, Rona Weasleya i Hermionę Granger – uczniów Szkoły Magii i Czarodziejstwa Hogwart. Wielowątkowa fabuła filmów skupia się przede wszystkim na walce z największym czarnoksiężnikiem na świecie, Lordem Voldemortem.

Filmy z serii Harry Potter, tak jak i książki, odniosły potężny sukces na całym świecie. Za sprawą ponad 7,7 miliarda dolarów[1] dochodu jest to najbardziej kasowy cykl filmów w historii, poza tym wszystkie pojedyncze części znajdują się w czołówce najbardziej dochodowych filmów wszech czasów (najwyżej część ostatnia – pozycja piąta).

====================
...::: OBSADA :::...
====================

Daniel Radcliffe...............: Harry James Potter
* Rupert Grint...................: Ronald "Ron" Weasley
* Emma Watson....................: Hermiona Granger
* Ralph Fiennes..................: Lord Voldemort / Tom Riddle
* Helena Bonham Carter...........: Bellatrix Lestrange
* Michael Gambon.................: Profesor Albus Dumbledore
* Alan Rickman...................: Profesor Severus Snape
* Maggie Smith...................: Profesor Minerwa McGonagall

=============================
...::: DANE TECHNICZNE :::...
=============================

Video
ID : 1
Format : AVC
Format/Info : Advanced Video Codec
Format profile : High@L4.1
Format settings, CABAC : Yes
Format settings, ReFrames : 5 frames
Codec ID : V_MPEG4/ISO/AVC
Duration : 2h 10mn
Bit rate : 5 932 Kbps
Width : 1 920 pixels
Height : 800 pixels
Display aspect ratio : 2.40:1
Frame rate mode : Constant
Frame rate : 23.976 fps
Color space : YUV
Chroma subsampling : 4:2:0
Bit depth : 8 bits
Scan type : Progressive
Bits/(Pixel*Frame) : 0.161
Stream size : 5.41 GiB (72%)
Writing library : x264 core 144 r2525 40bb568
Encoding settings : cabac=1 / ref=5 / deblock=1:-3:-3 / analyse=0x3:0x133 / me=umh / subme=9 / psy=1 / psy_rd=1.00:0.00 / mixed_ref=1 / me_range=16 / chroma_me=1 / trellis=2 / 8x8dct=1 / cqm=0 / deadzone=21,11 / fast_pskip=1 / chroma_qp_offset=-2 / threads=12 / lookahead_threads=1 / sliced_threads=0 / nr=0 / decimate=1 / interlaced=0 / bluray_compat=0 / constrained_intra=0 / bframes=3 / b_pyramid=2 / b_adapt=2 / b_bias=0 / direct=3 / weightb=1 / open_gop=0 / weightp=2 / keyint=240 / keyint_min=24 / scenecut=40 / intra_refresh=0 / rc_lookahead=60 / rc=crf / mbtree=1 / crf=19.0 / qcomp=0.60 / qpmin=0 / qpmax=69 / qpstep=4 / vbv_maxrate=62500 / vbv_bufsize=78125 / crf_max=0.0 / nal_hrd=none / filler=0 / ip_ratio=1.40 / aq=1:1.00
Default : Yes
Forced : No
Color range : Limited
Color primaries : BT.709
Transfer characteristics : BT.709
Matrix coefficients : BT.709

Audio #1
ID : 2
Format : AC-3
Format/Info : Audio Coding 3
Mode extension : CM (complete main)
Format settings, Endianness : Big
Codec ID : A_AC3
Duration : 2h 10mn
Bit rate mode : Constant
Bit rate : 640 Kbps
Channel(s) : 6 channels
Channel positions : Front: L C R, Side: L R, LFE
Sampling rate : 48.0 KHz
Compression mode : Lossy
Stream size : 597 MiB (8%)
Title : Surround
Language : Polish
Default : Yes
Forced : No

Audio #2
ID : 3
Format : DTS
Format/Info : Digital Theater Systems
Mode : 16
Format settings, Endianness : Big
Codec ID : A_DTS
Duration : 2h 10mn
Bit rate mode : Constant
Bit rate : 1 509 Kbps
Channel(s) : 6 channels
Channel positions : Front: L C R, Side: L R, LFE
Sampling rate : 48.0 KHz
Bit depth : 24 bits
Compression mode : Lossy
Stream size : 1.37 GiB (18%)
Title : Surround
Language : English
Default : No
Forced : No

Text #1
ID : 4
Format : PGS
Codec ID : S_HDMV/PGS
Codec ID/Info : Picture based subtitle format used on BDs/HD-DVDs
Language : Polish
Default : No
Forced : No

Text #2
ID : 5
Format : PGS
Codec ID : S_HDMV/PGS
Codec ID/Info : Picture based subtitle format used on BDs/HD-DVDs
Language : English
Default : No
Forced : No

Menu
00:00:00.000 : :Chapter 1
00:02:58.178 : :Chapter 2
00:06:21.255 : :Chapter 3
00:10:21.954 : :Chapter 4
00:14:27.867 : :Chapter 5
00:20:05.496 : :Chapter 6
00:22:47.866 : :Chapter 7
00:25:38.411 : :Chapter 8
00:30:46.886 : :Chapter 9
00:34:33.780 : :Chapter 10
00:40:32.054 : :Chapter 11
00:45:52.333 : :Chapter 12
00:50:15.470 : :Chapter 13
00:54:41.152 : :Chapter 14
00:59:01.412 : :Chapter 15
01:03:41.984 : :Chapter 16
01:07:05.896 : :Chapter 17
01:11:24.446 : :Chapter 18
01:14:38.932 : :Chapter 19
01:23:40.932 : :Chapter 20
01:29:17.936 : :Chapter 21
01:31:25.229 : :Chapter 22
01:36:37.416 : :Chapter 23
01:41:09.146 : :Chapter 24
01:46:42.437 : :Chapter 25
01:50:18.403 : :Chapter 26
01:54:16.641 : :Chapter 27
01:58:13.002 : :Chapter 28

Lista plików Show/Hide [Pokaż/Ukryj]
Trackery
  • http://agusiq-torrents.pl:6969/announce
  • udp://tracker.coppersurfer.tk:6969/announce
  • http://tracker.filetracker.pl:8089/announce
  • udp://shadowshq.eddie4.nl:6969/announce
  • udp://9.rarbg.com:2710/announce
  • http://tracker.pow7.com/announce
  • http://atrack.pow7.com:80/announce
  • http://secure.pow7.com/announce
  • http://t1.pow7.com/announce
  • http://pow7.com/announce
  • http://auratorrent.pl:8089/announce
  • http://tracker.tfile.me/announce
  • http://tracker.tfile.me:80/announce
  • http://retracker.krs-ix.ru:80/announce
  • http://pow7.com:80/announce
  • http://tracker.trackerfix.com:80/announce
  • http://retracker.krs-ix.ru/announce

Brak komentarzy!

dziewczyna z pociąguprzełęcz ocalonychinfernobelferwindows 7Athe walking deadwikingowie3%asullyWestworldAvikingslegion samobójcówwindowspakt2016walking deadNeed For SpeedAwołyństar warsBattlefield 1Wołyń 2016automapapitbullm jak miłośćCall of Dutywindows 10
Żaden z plików nie znajduje się na serwerze. Torrenty są własnością użytkowników. Administrator serwisu nie może ponieść konsekwencji za to co użytkownicy wstawiają, lub za to co czynią na stronie. Nie możesz używać tego serwisu do rozpowszechniania lub ściągania materiałów do których nie masz odpowiednich praw lub licencji. Użytkownicy odpowiedzialni są za przestrzeganie tych zasad.
Copyright © 2016 torrentyorg.pl

Najlepsze strony Torrentowe