x264 / Dramat
Sr.Pig *2016* [1080p.WEB-DL.DD5.1.H264-FGT] [ENG]


Dodał: Uploader
Data dodania:
2017-01-09 21:50:58
Rozmiar: 3.31 GB
Ostat. aktualizacja:
2017-01-09 21:52:11
Seedów: 1503
Peerów: 1679


Komentarze: 0

...( Info )...

Produkcja: Meksyk
Gatunek: Dramat
Premiera: 26 stycznia 2016 (świat)
Reżyseria: Diego Luna
Scenariusz: Diego Luna, Augusto Mendoza

...( Opis )...

Starzejący się i schorowany farmer, po stracie swojej farmy, zabiera jedną ze swoich świń i udaje się do Meksyku. W drodze dołącza do niego jego córka.

...( Obsada )...

★ Maya Rudolph .... jako:
★ Danny Glover .... Gringo
★ Joel Murray .... Susan
★ Naian González Norvind ....

...( Dane Techniczne )...

Video
ID : 1
Format : AVC
Format/Info : Advanced Video Codec
Format profile : High@L4
Format settings, CABAC : Yes
Format settings, ReFrames : 5 frames
Codec ID : V_MPEG4/ISO/AVC
Duration : 1h 35mn
Bit rate : 4 452 Kbps
Width : 1 912 pixels
Height : 800 pixels
Display aspect ratio : 2.40:1
Frame rate mode : Constant
Frame rate : 23.976 (24000/1001) fps
Color space : YUV
Chroma subsampling : 4:2:0
Bit depth : 8 bits
Scan type : Progressive
Bits/(Pixel*Frame) : 0.121
Stream size : 2.98 GiB (90%)
Title : Sr.Pig.2016.1080p.WEB-DL.DD5.1.H264-FGT
Language : English
Default : Yes
Forced : No
Color range : Limited
Color primaries : BT.709
Transfer characteristics : BT.709
Matrix coefficients : BT.709

Audio
ID : 2
Format : AC-3
Format/Info : Audio Coding 3
Mode extension : CM (complete main)
Format settings, Endianness : Big
Codec ID : A_AC3
Duration : 1h 35mn
Bit rate mode : Constant
Bit rate : 384 Kbps
Channel(s) : 6 channels
Channel positions : Front: L C R, Side: L R, LFE
Sampling rate : 48.0 KHz
Frame rate : 31.250 fps (1536 spf)
Compression mode : Lossy
Stream size : 263 MiB (8%)
Title : Sr.Pig.2016.1080p.WEB-DL.DD5.1.H264-FGT
Language : English
Default : Yes
Forced : No

Text #1
ID : 3
Format : UTF-8
Codec ID : S_TEXT/UTF8
Codec ID/Info : UTF-8 Plain Text
Title : FORCED
Language : English
Default : Yes
Forced : Yes

Text #2
ID : 4
Format : UTF-8
Codec ID : S_TEXT/UTF8
Codec ID/Info : UTF-8 Plain Text
Language : English
Default : No
Forced : No

Menu
00:00:00.000 : en:1
00:13:53.000 : en:2
00:21:01.000 : en:3
00:34:23.000 : en:4
00:47:07.000 : en:5
01:04:15.000 : en:6
01:13:57.000 : en:7
01:23:17.000 : en:8
01:32:07.000 : en:9

Lista plików Show/Hide [Pokaż/Ukryj]
Trackery
  • http://tracker.trackerfix.com:80/announce
  • udp://9.rarbg.to:2710/announce
  • udp://9.rarbg.me:2710/announce

Brak komentarzy!

przełęcz ocalonychinfernoBattlefield 1Call of Duty3%m jak miłośćwalking deadlegion samobójcówwindows 10WestworldNeed For SpeedwołyńAvikingsbelferpakt2016star warspitbullAwindows 7sullywindowsthe walking deadwikingowiedziewczyna z pociąguautomapaAaWołyń 2016
Żaden z plików nie znajduje się na serwerze. Torrenty są własnością użytkowników. Administrator serwisu nie może ponieść konsekwencji za to co użytkownicy wstawiają, lub za to co czynią na stronie. Nie możesz używać tego serwisu do rozpowszechniania lub ściągania materiałów do których nie masz odpowiednich praw lub licencji. Użytkownicy odpowiedzialni są za przestrzeganie tych zasad.
Copyright © 2016 torrentyorg.pl

Najlepsze strony Torrentowe