x264 / Thriller
Arsenal *2017* [1080p.WEB-DL.DD5.1.H264-FGT] [ENG]


Dodał: Uploader
Data dodania:
2017-01-09 21:51:21
Rozmiar: 3.19 GB
Ostat. aktualizacja:
2017-01-09 21:51:56
Seedów: 2690
Peerów: 890


Komentarze: 0

...( Info )...

Tytuł............................................: Arsenal
Ocena.............................................: IMDB - 6.1/10 (7)
Produkcja.........................................: USA
Gatunek...........................................: Thriller
Czas trwania......................................: 92 min.
Premiera..........................................: 06.01.2017 - Świat
Reżyseria........................................: Steven C. Miller
Scenariusz........................................: Jason Mosberg

...( Opis )...

Bracia JP i Mickey wspierają się od dziecka. Gdy Mickey popada w konflikt z bossem mafijnym (tak, Nikoś), który porywa go dla okupu, JP przy pomocy starego kolegi, obecnie gliny, wyrusza na wojnę z armią gangsterów.

...( Obsada )...

★ Nicolas Cage .... Eddie King
★ John Cusack .... Sal
★ Adrian Grenier .... JP
★ Johnathon Schaech .... Mikey
★ Lydia Hull .... Lizzie
★ Tyler Jon Olson .... Gus
★ Carrie Joe Hubrich .... Chelsea
★ Dylan DePaula .... Kumpel młodego Mickey`a

...( Dane Techniczne )...

Video
ID : 1
Format : AVC
Format/Info : Advanced Video Codec
Format profile : High@L4
Format settings, CABAC : Yes
Format settings, ReFrames : 5 frames
Codec ID : V_MPEG4/ISO/AVC
Duration : 1h 32mn
Bit rate : 4 475 Kbps
Width : 1 912 pixels
Height : 796 pixels
Display aspect ratio : 2.40:1
Frame rate mode : Constant
Frame rate : 23.976 (24000/1001) fps
Color space : YUV
Chroma subsampling : 4:2:0
Bit depth : 8 bits
Scan type : Progressive
Bits/(Pixel*Frame) : 0.123
Stream size : 2.88 GiB (90%)
Title : Arsenal.2017.1080p.WEB-DL.DD5.1.H264-FGT
Language : English
Default : Yes
Forced : No
Color range : Limited
Color primaries : BT.709
Transfer characteristics : BT.709
Matrix coefficients : BT.709

Audio
ID : 2
Format : AC-3
Format/Info : Audio Coding 3
Mode extension : CM (complete main)
Format settings, Endianness : Big
Codec ID : A_AC3
Duration : 1h 32mn
Bit rate mode : Constant
Bit rate : 384 Kbps
Channel(s) : 6 channels
Channel positions : Front: L C R, Side: L R, LFE
Sampling rate : 48.0 KHz
Frame rate : 31.250 fps (1536 spf)
Compression mode : Lossy
Stream size : 253 MiB (8%)
Title : Arsenal.2017.1080p.WEB-DL.DD5.1.H264-FGT
Language : English
Default : Yes
Forced : No

Text
ID : 3
Format : UTF-8
Codec ID : S_TEXT/UTF8
Codec ID/Info : UTF-8 Plain Text
Language : English
Default : Yes
Forced : No

Menu
00:00:00.000 : en:1
00:11:20.000 : en:2
00:24:30.000 : en:3
00:38:06.000 : en:4
00:48:52.000 : en:5
01:01:52.000 : en:6
01:15:19.000 : en:7
01:26:48.000 : en:8

Lista plików Show/Hide [Pokaż/Ukryj]
Trackery
  • http://tracker.trackerfix.com:80/announce
  • udp://9.rarbg.to:2710/announce
  • udp://9.rarbg.me:2710/announce

Brak komentarzy!

paktdziewczyna z pociąguBattlefield 1sullym jak miłośćlegion samobójcówWestworldwindows2016Wołyń 2016A3%automapaAstar warsinfernopitbullbelferprzełęcz ocalonychAthe walking deadCall of Dutyawindows 10wołyńwindows 7Need For Speedwalking deadvikingswikingowie
Żaden z plików nie znajduje się na serwerze. Torrenty są własnością użytkowników. Administrator serwisu nie może ponieść konsekwencji za to co użytkownicy wstawiają, lub za to co czynią na stronie. Nie możesz używać tego serwisu do rozpowszechniania lub ściągania materiałów do których nie masz odpowiednich praw lub licencji. Użytkownicy odpowiedzialni są za przestrzeganie tych zasad.
Copyright © 2016 torrentyorg.pl

Najlepsze strony Torrentowe