HD / Akcja
Zabić Salazara-Killing Salazar (2016)[BDRip 1080p by alE13 AC3][Napisy PL][Eng]


Dodał: alE13
Data dodania:
2017-01-10 09:31:35
Rozmiar: 8.05 GB
Ostat. aktualizacja:
2017-01-13 17:27:11
Seedów: 36
Peerów: 84


Komentarze: 0

http://i.imgur.com/CdIAmIy.jpg

http://www.imdb.com/title/tt4949290/
http://www.filmweb.pl/film/Killing+Salazar-2016-753053

Plik zawiera Sample.

reżyseria: Keoni Waxman
scenariusz: Richard Beattie,Keoni Waxman
gatunek: Akcja
produkcja: USA,Rumunia
premiera: 30-04-2016
muzyka: Michael Richard Plowman
czas: 1h 39mn

opis:

An elite team of DEA agents are assigned to protect a dangerous drug lord and take refuge
in a luxury hotel while they await extraction. They soon find themselves at the center of
an ambush as the drug lord's former associates launch an explosive assault on the hotel.

Elitarny zespół agentów DEA dostaje rozkaz ochrony niebezpiecznego szefa kartelu narkotykowego
przypadek zmusza ich schronić się w luksusowym hotelu i czekać na wsparcie, wkrótce wpadają
w zasadzkę, dawni współpracownicy chcą odbić szefa i atakują hotel.

http://i.imgur.com/wW0fhWM.jpg
http://i.imgur.com/82PvV7B.jpg
http://i.imgur.com/vdtBGN9.jpg
http://i.imgur.com/sukTsDi.jpg

obsada:

Steven Seagal, Luke Goss, Georges St-Pierre

dane techniczne:

Killing Salazar (2016)-alE13.mkv
Format : Matroska
Format version : Version 4 / Version 2
File size : 7.99 GiB
Duration : 1 h 39 min
Overall bit rate : 11.5 Mb/s
Movie name : Killing Salazar (2016)-alE13
Encoded date : UTC 2017-01-10 07:53:45
Writing application : mkvmerge v8.1.0 ('Psychedelic Postcard') 64bit
Writing library : libebml v1.3.1 + libmatroska v1.4.2
Cover : Yes
Attachments : cover.jpg

Video
ID : 1
Format : AVC
Format/Info : Advanced Video Codec
Format profile : High@L4.1
Format settings, CABAC : Yes
Format settings, ReFrames : 2 frames
Codec ID : V_MPEG4/ISO/AVC
Duration : 1 h 39 min
Bit rate : 10.9 Mb/s
Width : 1 920 pixels
Height : 1 080 pixels
Display aspect ratio : 16:9
Frame rate mode : Constant
Frame rate : 23.976 (24000/1001) FPS
Color space : YUV
Chroma subsampling : 4:2:0
Bit depth : 8 bits
Scan type : Progressive
Bits/(Pixel*Frame) : 0.219
Stream size : 7.55 GiB (94%)
Title : Killing Salazar (2016)-alE13
Writing library : x264 core 142
Default : Yes
Forced : No
Color range : Limited
Color primaries : BT.709
Transfer characteristics : BT.709
Matrix coefficients : BT.709

Audio
ID : 2
Format : AC-3
Format/Info : Audio Coding 3
Mode extension : CM (complete main)
Format settings, Endianness : Big
Codec ID : A_AC3
Duration : 1 h 39 min
Bit rate mode : Constant
Bit rate : 640 kb/s
Channel(s) : 6 channels
Channel positions : Front: L C R, Side: L R, LFE
Sampling rate : 48.0 kHz
Frame rate : 31.250 FPS (1536 spf)
Bit depth : 16 bits
Compression mode : Lossy
Stream size : 454 MiB (6%)
Title : Killing Salazar (2016)-alE13_AC3
Language : English
Default : No
Forced : No

Text
ID : 3
Format : UTF-8
Codec ID : S_TEXT/UTF8
Codec ID/Info : UTF-8 Plain Text
Duration : 1 h 34 min
Bit rate : 37 b/s
Count of elements : 680
Stream size : 25.7 KiB (0%)
Title : Killing Salazar (2016)-alE13_color
Language : Polish
Default : Yes
Forced : No

Menu
00:00:00.000 : en:00:00:00.000
00:07:31.826 : en:00:07:31.826
00:13:09.163 : en:00:13:09.163
00:23:19.565 : en:00:23:19.565
00:29:03.951 : en:00:29:03.951
00:38:14.167 : en:00:38:14.167
00:49:42.438 : en:00:49:42.438
00:58:32.092 : en:00:58:32.092
01:09:51.813 : en:01:09:51.813
01:14:52.196 : en:01:14:52.196
01:21:39.937 : en:01:21:39.937
01:29:42.711 : en:01:29:42.711

Lista plików Show/Hide [Pokaż/Ukryj]
Trackery
  • http://tracker.torrentyorg.pl/announce
  • udp://tracker.coppersurfer.tk:6969/announce
  • udp://tracker.leechers-paradise.org:6969/announce
  • http://mgtracker.org:2710/announce
  • http://pow7.com/announce
  • http://pow7.com:80/announce
  • udp://inferno.demonoid.pw:3393/announce
  • udp://inferno.demonoid.ooo:3392/announce
  • http://retracker.omsk.ru:2710/announce
  • http://tracker.tfile.me/announce
  • http://auratorrent.pl:8089/announce

Brak komentarzy!

Need For Speeddziewczyna z pociąguinfernoapaktm jak miłośćWołyń 2016windows 10pitbull3%wołyńbelferBattlefield 1automapaCall of Dutywindows 7legion samobójcówprzełęcz ocalonychWestworldAwindowsAvikingswalking deadAthe walking dead2016wikingowiestar warssully
Żaden z plików nie znajduje się na serwerze. Torrenty są własnością użytkowników. Administrator serwisu nie może ponieść konsekwencji za to co użytkownicy wstawiają, lub za to co czynią na stronie. Nie możesz używać tego serwisu do rozpowszechniania lub ściągania materiałów do których nie masz odpowiednich praw lub licencji. Użytkownicy odpowiedzialni są za przestrzeganie tych zasad.
Copyright © 2016 torrentyorg.pl

Najlepsze strony Torrentowe