HD / Horror
Wskrzeszony-The Resurrected (1991)[BDRip 1080p by alE13 DTS/AC3][Lektor PL i Napisy Eng][Eng]


Dodał: alE13
Data dodania:
2017-01-11 05:23:26
Rozmiar: 7.48 GB
Ostat. aktualizacja:
2017-01-11 23:23:18
Seedów: 15
Peerów: 79


Komentarze: 0

http://i.imgur.com/XKOThdo.jpg

http://www.filmweb.pl/film/Wskrzeszony-1991-40713
http://www.imdb.com/title/tt0105242/

Plik zawiera Sample.

reżyseria: Dan O'Bannon
scenariusz: Brent V. Friedman
gatunek: Horror
produkcja: USA
premiera: 15-04-1992
muzyka: Richard Band
zdjęcia: Irv Goodnoff
czas: 1h 45mn

opis:

Żona (Jane Sibbett) Charlesa Dextera Warda (Chris Sarandon) wynajmuje prywatnego detektywa (John Terry),
aby ten dowiedział się, co robi jej mąż w ich starym opuszczonym domu. Detektyw odkrywa dziennik męża
i okazuje się, że Charles prowadzi eksperymenty chemiczne na martwych zwłokach.

Charles Dexter Ward's wife enlists the help of a private detective to find out what her husband is up
to in a remote cabin owned by his family for centuries.

http://i.imgur.com/3mBJ3er.jpg
http://i.imgur.com/Vka1xfD.jpg
http://i.imgur.com/f8abueO.jpg
http://i.imgur.com/lbyzeZ7.jpg

obsada:

John Terry, Jane Sibbett, Chris Sarandon

dane techniczne:

The Resurrected (1991)-alE13.mkv
Format : Matroska
Format version : Version 4 / Version 2
File size : 7.42 GiB
Duration : 1 h 45 min
Overall bit rate : 10.1 Mb/s
Movie name : The Resurrected (1991)-alE13
Encoded date : UTC 2017-01-10 22:27:55
Writing application : mkvmerge v8.1.0 ('Psychedelic Postcard') 64bit
Writing library : libebml v1.3.1 + libmatroska v1.4.2
Cover : Yes
Attachments : cover.jpg

Video
ID : 1
Format : AVC
Format/Info : Advanced Video Codec
Format profile : High@L4.1
Format settings, CABAC : Yes
Format settings, ReFrames : 2 frames
Codec ID : V_MPEG4/ISO/AVC
Duration : 1 h 45 min
Bit rate : 9 049 kb/s
Width : 1 920 pixels
Height : 1 080 pixels
Display aspect ratio : 16:9
Frame rate mode : Constant
Frame rate : 23.976 (24000/1001) FPS
Color space : YUV
Chroma subsampling : 4:2:0
Bit depth : 8 bits
Scan type : Progressive
Bits/(Pixel*Frame) : 0.182
Stream size : 6.67 GiB (90%)
Writing library : x264 core 142
Default : Yes
Forced : No
Color range : Limited
Color primaries : BT.709
Transfer characteristics : BT.709
Matrix coefficients : BT.709

Audio #1
ID : 2
Format : DTS
Format/Info : Digital Theater Systems
Mode : 16
Format settings, Endianness : Big
Codec ID : A_DTS
Duration : 1 h 45 min
Bit rate mode : Constant
Bit rate : 768 kb/s
Channel(s) : 2 channels
Channel positions : Front: L R
Sampling rate : 48.0 kHz
Frame rate : 93.750 FPS (512 spf)
Bit depth : 16 bits
Compression mode : Lossy
Stream size : 580 MiB (8%)
Title : The Resurrected (1991)-alE13_DTS
Language : English
Default : No
Forced : No

Audio #2
ID : 4
Format : AC-3
Format/Info : Audio Coding 3
Mode extension : CM (complete main)
Format settings, Endianness : Big
Codec ID : A_AC3
Duration : 1 h 45 min
Bit rate mode : Constant
Bit rate : 256 kb/s
Channel(s) : 2 channels
Channel positions : Front: L R
Sampling rate : 48.0 kHz
Frame rate : 31.250 FPS (1536 spf)
Bit depth : 16 bits
Compression mode : Lossy
Delay relative to video : 11 s 0 ms
Stream size : 193 MiB (3%)
Title : The Resurrected (1991)-alE13
Language : Polish
Default : Yes
Forced : No

Text
ID : 3
Format : UTF-8
Codec ID : S_TEXT/UTF8
Codec ID/Info : UTF-8 Plain Text
Duration : 1 h 38 min
Bit rate : 43 b/s
Count of elements : 826
Stream size : 31.2 KiB (0%)
Title : The Resurrected (1991)-alE13
Language : English
Default : No
Forced : No

Lista plików Show/Hide [Pokaż/Ukryj]
Trackery
  • http://tracker.torrentyorg.pl/announce
  • udp://tracker.coppersurfer.tk:6969/announce
  • udp://tracker.leechers-paradise.org:6969/announce
  • http://mgtracker.org:2710/announce
  • http://pow7.com:80/announce
  • http://pow7.com/announce
  • http://auratorrent.pl:8089/announce
  • udp://inferno.demonoid.pw:3393/announce
  • udp://inferno.demonoid.ooo:3392/announce
  • http://retracker.omsk.ru:2710/announce
  • http://tracker.tfile.me/announce

Brak komentarzy!

windowspaktthe walking deadAWestworldCall of Dutyvikingsprzełęcz ocalonychinfernopitbullwindows 7dziewczyna z pociąguWołyń 2016Aasully3%belferwikingowiewalking dead2016windows 10star warsAm jak miłośćBattlefield 1wołyńNeed For Speedlegion samobójcówautomapa
Żaden z plików nie znajduje się na serwerze. Torrenty są własnością użytkowników. Administrator serwisu nie może ponieść konsekwencji za to co użytkownicy wstawiają, lub za to co czynią na stronie. Nie możesz używać tego serwisu do rozpowszechniania lub ściągania materiałów do których nie masz odpowiednich praw lub licencji. Użytkownicy odpowiedzialni są za przestrzeganie tych zasad.
Copyright © 2016 torrentyorg.pl

Najlepsze strony Torrentowe