XviD/DivX / Sensacyjny
Pitbull - Nowe porzadki (2016) [DVDRip] [XviD-torentup] [Lektor Polski ]


Dodał: Uploader
Data dodania:
2016-09-09 00:29:48
Rozmiar: 1.37 GB
Ostat. aktualizacja:
2017-01-14 17:16:24
Seedów: 1325
Peerów: 10


Komentarze: 0

=====================
INFO
================

Produkcja: Polska
Gatunek: Dramat, Sensacyjny
Premiera: 22 stycznia 2016 (Polska), 21 stycznia 2016 (świat)
Reżyseria: Patryk Vega
Scenariusz: Patryk Vega

Filmweb: 7,7/10 45708 głosów
http://www.filmweb.pl/film/Pitbull.+Nowe+porz%C4%85dki-2016-747433

IMDB: 7,1/10 198 głosów
http://www.imdb.com/title/tt5377604/


=====================
OPIS
====================

"Będzie zabójstwo. I ja w nim będę brał udział. A mówię ci to tylko dlatego, że mi tego nie udowodnisz". Tymi słowami Bogusław Linda, w roli gangstera złamanego przeszłością, powraca na wielki ekran. W filmie Patryka Vegi "Pitbull. Nowe porządki" rzuca wyzwanie niepokornemu policjantowi o pseudonimie Majami z mokotowskiej komendy. Gdy Majami zaczyna rozpracowywać grupę gangsterów, jego droga przecina się z bohaterami dawnego Pitbulla - Gebelsem, Igorem i Barszczykiem. ...


=====================
OBSADA
====================

Piotr Stramowski - Majami
Andrzej Grabowski - Gebels
Paweł Królikowski - Igor
Michał Kula - Barszczyk
Bogusław Linda - Babcia
Krzysztof Czeczot - Zupa
Agnieszka Dygant - Kura
Maja Ostaszewska - Olka
Julia Pogrebińska - Aminat
Anna Mucha - Kinia


=====================
DANE TECHNICZNE
=====================

Format : AVI
Format/Info : Audio Video Interleave
File size : 1.37 GiB
Duration : 2h 6mn
Overall bit rate : 1 544 Kbps
Writing application : VirtualDubMod 1.5.10.2 (build 2540/release)
Writing library : VirtualDubMod build 2540/release

Video
ID : 0
Format : MPEG-4 Visual
Format profile : Advanced Simple@L5
Format settings, BVOP : 2
Format settings, QPel : No
Format settings, GMC : No warppoints
Format settings, Matrix : Default (H.263)
Muxing mode : Packed bitstream
Codec ID : XVID
Codec ID/Hint : XviD
Duration : 2h 6mn
Bit rate : 1 406 Kbps
Width : 640 pixels
Height : 272 pixels
Display aspect ratio : 2.35:1
Frame rate : 25.000 fps
Color space : YUV
Chroma subsampling : 4:2:0
Bit depth : 8 bits
Scan type : Progressive
Compression mode : Lossy
Bits/(Pixel*Frame) : 0.323
Stream size : 1.24 GiB (91%)
Writing library : XviD 67

Audio
ID : 1
Format : MPEG Audio
Format version : Version 1
Format profile : Layer 3
Mode : Joint stereo
Mode extension : MS Stereo
Codec ID : 55
Codec ID/Hint : MP3
Duration : 2h 6mn
Bit rate mode : Constant
Bit rate : 128 Kbps
Channel(s) : 2 channels
Sampling rate : 48.0 KHz
Compression mode : Lossy
Stream size : 116 MiB (8%)
Alignment : Aligned on interleaves
Interleave, duration : 40 ms (1.00 video frame)
Interleave, preload duration : 504 ms

Lista plików Show/Hide [Pokaż/Ukryj]
Trackery
  • http://tracker.filetracker.pl:8089/announce
  • udp://tracker.leechers-paradise.org:6969/announce
  • udp://www.eddie4.nl:6969/announce
  • udp://eddie4.nl:6969/announce
  • udp://shadowshq.eddie4.nl:6969/announce
  • udp://ipv4.tracker.harry.lu:80/announce
  • udp://9.rarbg.com:2710/announce
  • udp://9.rarbg.me:2710/announce
  • udp://tracker.prq.to/announce
  • udp://tracker.publicbt.com:80/announce
  • udp://tracker.openbittorrent.com:80/announce
  • udp://tracker.publicbt.com/announce
  • udp://exodus.desync.com:6969
  • udp://10.rarbg.com/announce
  • udp://11.rarbg.com:80/announce
  • http://tracker.free-torrents.pl/announce
  • udp://tracker.istole.it:80/announce
  • udp://tracker4.piratux.com:6969/announce
  • http://retracker.omsk.ru:2710/announce
  • http://www.tlv.cc:7777/announce
  • http://94.228.192.98/announce
  • http://tracker.pubt.net:2710/announce
  • http://tracker.immortaltorrent.pl/announce
  • udp://open.demonii.com:1337/announce
  • http://tracker.streettorrent.pl:80/announce
  • http://tracker.torrenty.org:6969/announce
  • udp://torrent.gresille.org:80/announce
  • http://tracker.best-torrents.net:6969/announce
  • http://tracker.aletorrenty.pl:2710/announce

Brak komentarzy!

Żaden z plików nie znajduje się na serwerze. Torrenty są własnością użytkowników. Administrator serwisu nie może ponieść konsekwencji za to co użytkownicy wstawiają, lub za to co czynią na stronie. Nie możesz używać tego serwisu do rozpowszechniania lub ściągania materiałów do których nie masz odpowiednich praw lub licencji. Użytkownicy odpowiedzialni są za przestrzeganie tych zasad.
Copyright © 2016 torrentyorg.pl

Najlepsze strony Torrentowe